<?xml version="1.0" standalone="no"?>
<!DOCTYPE svg PUBLIC "-//W3C//DTD SVG 1.1//EN" "http://www.w3.org/Graphics/SVG/1.1/DTD/svg11.dtd" >
<svg xmlns="http://www.w3.org/2000/svg">
<metadata>
This is a custom SVG webfont generated by Font Squirrel.
Copyright   : Copyright c 2010 by Toshi Omagari All rights reserved
Designer    : Toshi Omagari
Foundry     : Toshi Omagari
</metadata>
<defs>
<font id="webfonthaN3LTd2" horiz-adv-x="2039" >
<font-face units-per-em="2048" ascent="1536" descent="-512" />
<missing-glyph horiz-adv-x="307" />
<glyph unicode=" "  horiz-adv-x="307" />
<glyph unicode="&#x09;" horiz-adv-x="307" />
<glyph unicode="&#xa0;" horiz-adv-x="307" />
<glyph unicode="!" horiz-adv-x="387" d="M113 45q0 12 9 26.5t22.5 29t31 23.5t35.5 9q20 0 20 -29q0 -16 -9 -34.5t-23.5 -34t-29.5 -25.5t-30 -10q-26 0 -26 45zM240 285q31 68 70.5 166l77.5 201.5t69.5 199.5t50.5 162q12 18 39.5 41.5t54.5 38t42 13.5t1 -32q-41 -80 -93 -193l-106 -229l-100 -218l-74 -165 q-16 -18 -27 -13t-5 28z" />
<glyph unicode="&#x22;" horiz-adv-x="438" d="M104 569l31 49l42 69l42 70l33 54q6 10 21.5 14t52.5 4q29 0 20 -20l-47 -54l-60 -71l-63 -73q-31 -36 -53 -58q-10 -4 -16.5 1t-2.5 15zM297 569l31 49l42 69l42 70l32 54q6 10 21.5 14t52.5 4q29 0 21 -20l-47 -54l-61 -71l-62 -73q-31 -36 -54 -58q-10 -4 -16 1t-2 15 z" />
<glyph unicode="#" horiz-adv-x="591" d="M29 227.5q2 8.5 11 18.5t20.5 18t21.5 10q20 2 40.5 3.5t43.5 3.5l32 77l31 78l-63.5 -7t-52.5 -7q-8 0 -5 8t11 18.5t19.5 18.5t21.5 10q23 4 45 5t47 3l27 55q12 26 26 48q8 14 22.5 30.5t28 27.5t22.5 12t7 -17q-25 -39 -46 -78l-42 -76q39 0 78 1t76 1l27 51 q13 24 28 44q8 14 24.5 32.5t32 30.5t24.5 14.5t7 -16.5q-27 -39 -50.5 -77t-45.5 -79q33 0 62.5 -1t55.5 -3q14 -4 -1 -22.5t-33 -24.5q-27 2 -55 2h-56q-23 -39 -42 -76.5t-36 -76.5q33 0 62.5 -1t58.5 -3q6 -2 5 -8.5t-7 -14.5t-15.5 -15t-17.5 -9q-27 2 -53 2h-55 q-25 -55 -46 -109l-42 -106q-8 -23 -21 -23q-12 0 -8 14l35 101q20 57 47 123h-79q-38 0 -75 -5q-45 -111 -73 -210q-8 -23 -21 -23q-8 0 -8 14q10 41 29 98l41 119q-33 -4 -62 -7t-53 -7q-8 2 -6 10.5zM201 283q39 2 77.5 3t75.5 1q33 76 72 155q-39 0 -78 -1t-76 -3 l-38 -79z" />
<glyph unicode="$" horiz-adv-x="550" d="M20 84q0 12 7.5 29.5t19.5 38t28.5 40t33.5 31.5q8 4 14 -2t2 -16q-18 -16 -29.5 -43t-7.5 -49q12 -63 78 -80l60 147l61 142q-31 35 -56.5 68.5t-25.5 82.5q0 31 12 60.5t37 54t59.5 39t79.5 14.5q8 0 15.5 -1t13.5 -1l31 67l30 70q10 14 23.5 11t9.5 -19 q-31 -72 -61 -135q35 -10 55 -24.5t20 -28.5q0 -29 -10 -64t-24 -57q-6 -4 -14.5 -1t-6.5 13q8 16 10 38.5t-2 39.5q-10 33 -45 49l-51 -116l-49 -111q35 -37 66.5 -77t31.5 -104q0 -80 -64.5 -136t-174.5 -56h-15q-10 -31 -22.5 -62.5l-26.5 -64.5q-10 -18 -23.5 -19.5 t-11.5 15.5l28 68l26 65q-59 8 -95.5 32.5t-36.5 51.5zM195 29h6q86 0 129 36.5t43 90.5q0 47 -19.5 80.5t-46.5 62.5l-56 -134zM268 506q0 -35 14.5 -61.5t34.5 -51.5l44 104l49 111h-17q-61 0 -93 -28.5t-32 -73.5z" />
<glyph unicode="%" horiz-adv-x="794" d="M41 362q0 49 19.5 98.5t51 89.5t73.5 65.5t87 25.5t71 -28.5t26 -80.5q0 -49 -19.5 -99t-51.5 -90t-74 -65.5t-87 -25.5t-70.5 29.5t-25.5 80.5zM66 -121l154 219l152 213l157 218l176 237q14 10 29.5 6t10.5 -20l-331 -444l-308 -439q-16 -16 -30 -11t-10 21zM100 422 q0 -53 17.5 -83t56.5 -30q57 0 96 50.5t39 113.5q0 53 -17.5 82t-55.5 29q-55 0 -95.5 -50.5t-40.5 -111.5zM428 111q0 49 19.5 98t51 89t72.5 65.5t86 25.5q47 0 72 -28.5t25 -79.5q0 -49 -19.5 -99.5t-51.5 -90.5t-73 -65.5t-86 -25.5t-70.5 30t-25.5 81zM487 168 q0 -53 16.5 -82t57.5 -29q55 0 94 50.5t39 113.5q0 53 -16 82t-57 29q-55 0 -94.5 -50.5t-39.5 -113.5z" />
<glyph unicode="&#x26;" horiz-adv-x="1038" d="M41 219q0 61 25.5 106.5t65.5 80t90 64.5l102 60q-16 88 -17 160q0 57 17.5 108.5t47 90.5t68.5 61.5t82 22.5q35 0 59.5 -33t24.5 -74q0 -59 -18.5 -107t-49 -86t-70.5 -70t-83 -58q23 -102 69 -196.5t115 -162.5q41 51 79 110.5t79 111t87 84t106 32.5q45 0 70.5 -31.5 t35.5 -74.5q4 -10 -5 -15.5t-17 5.5q-16 23 -44 37t-67 14q-49 0 -88 -26.5t-75 -68.5t-70.5 -93.5t-73.5 -100.5q55 -51 122.5 -80t147.5 -29q70 0 113 54q8 10 22.5 8t-2.5 -25q-33 -45 -80 -71.5t-114 -26.5q-78 0 -144.5 28.5t-120.5 80.5q-47 -47 -108.5 -78 t-140.5 -31q-106 0 -173 61.5t-67 157.5zM121 254q0 -92 59.5 -145.5t165.5 -53.5q49 0 90 18.5t76 51.5q-72 74 -117 175t-67 208l-78 -52q-37 -26 -65.5 -56.5t-46 -65.5t-17.5 -80zM360 752q0 -92 19 -187q70 47 119 107.5t49 156.5q0 39 -17.5 66t-52.5 27 q-55 0 -86 -48t-31 -122z" />
<glyph unicode="'" horiz-adv-x="245" d="M104 569l31 49l42 69l42 70l33 54q6 10 21.5 14t52.5 4q29 0 20 -20l-47 -54l-60 -71l-63 -73q-31 -36 -53 -58q-10 -4 -16.5 1t-2.5 15z" />
<glyph unicode="(" horiz-adv-x="512" d="M195.5 144.5q-5.5 103.5 4 218t38.5 229.5q55 233 162.5 415.5t244.5 297.5q14 8 24.5 4t0.5 -23q-41 -39 -89.5 -101.5t-84.5 -125.5q-53 -90 -97.5 -207t-75 -244t-48 -256t-17.5 -246q0 -33 2 -72.5t7 -79.5t13.5 -78t18.5 -66q2 -16 -10.5 -21.5t-22.5 6.5 q-29 66 -47 156t-23.5 193.5z" />
<glyph unicode=")" horiz-adv-x="565" d="M66 -190q41 41 88 102t86 127q53 90 97 205.5t74.5 242.5t48 256t17.5 246q0 33 -2 73t-7 80t-13.5 77.5t-18.5 66.5q-2 18 10.5 22.5t22.5 -8.5q29 -66 47.5 -155.5t23.5 -193t-5.5 -218.5t-36.5 -229q-55 -233 -163 -415.5t-247 -297.5q-12 -8 -22 -3.5t0 22.5z" />
<glyph unicode="*" horiz-adv-x="385" d="M87 696.5q1 8.5 7 17.5t16.5 14t18.5 1q12 -8 28.5 -15t32.5 -16q18 -8 35 -18l13 51q4 23 10 45.5t10 40.5q2 12 14.5 20.5t24.5 11.5t20.5 0t4.5 -11l-23 -51l-23 -50q-12 -29 -26 -55l57 20q25 10 51.5 18.5t49.5 18.5q10 4 14 -3t3 -18t-5 -20.5t-12 -11.5l-50 -9 q-27 -5 -51 -9q-29 -6 -57 -11l35 -43q16 -18 31.5 -37.5t29.5 -31.5q8 -8 4 -18.5t-13 -16.5t-20.5 -7t-15.5 9q-10 16 -22 40l-23 44l-25 47l-34 -51l-29 -44l-25 -36q-6 -10 -16 -10t-19.5 5t-14.5 11t1 12l38 39l40 43q23 23 43 47q-20 4 -43 11q-18 4 -38.5 8t-37.5 8 q-10 2 -9 10.5z" />
<glyph unicode="+" horiz-adv-x="616" d="M110.5 294.5q10.5 18.5 61.5 24.5h135l33 92l33 87q2 8 11 15t19.5 10t18.5 1t8 -10l-36 -100l-34 -95h97q49 0 94 -2q16 -4 2 -20t-39 -21h-170l-31 -90l-28 -84q-8 -27 -32 -33t-24 11l32 100q15 49 32 96q-47 -2 -91 -2t-87 -2q-15 4 -4.5 22.5z" />
<glyph unicode="," horiz-adv-x="229" d="M0 -173q-2 7 4 15q45 29 73.5 72t28.5 90q0 43 -20 55q-6 6 1 18.5t19.5 25t25.5 22.5t22 10q10 -4 17 -25.5t7 -46.5q0 -63 -48 -131.5t-120 -111.5q-8 0 -10 7z" />
<glyph unicode="-" horiz-adv-x="501" d="M80 283q-14 4 0 21.5t41 23.5q27 2 68.5 6t89 7t93.5 5t81 2q8 -2 6 -10t-9.5 -17.5t-19.5 -17.5t-27 -10q-37 0 -82 -1t-89 -3t-84.5 -3t-67.5 -3z" />
<glyph unicode="." horiz-adv-x="229" d="M61 45q0 12 8.5 26.5t22.5 29t30.5 23.5t35.5 9q20 0 20 -31q0 -16 -9 -33.5t-22.5 -33t-30 -25.5t-30.5 -10q-25 0 -25 45z" />
<glyph unicode="/" horiz-adv-x="430" d="M-49 -68l106 187l130 227l143 250l146 254l139 237l120 203q12 10 28.5 8t12.5 -18l-111 -185l-139 -236l-150 -260l-148 -259l-131 -234l-99 -182q-14 -16 -32.5 -13t-14.5 21z" />
<glyph unicode="0" horiz-adv-x="714" d="M113 213q0 66 27.5 141.5t78.5 139t121 105.5t156 42q92 0 140 -59.5t48 -151.5q0 -84 -33 -160.5t-86 -137t-121.5 -96.5t-140.5 -36q-92 0 -141 60.5t-49 152.5zM180 276q0 -96 43 -154.5t135 -58.5q49 0 96.5 23t83 63.5t57 97t21.5 124.5q0 96 -40.5 152.5 t-133.5 56.5q-59 0 -107 -25t-83 -67t-53.5 -97.5t-18.5 -114.5z" />
<glyph unicode="1" horiz-adv-x="387" d="M82 4q25 66 54 135l61 140l61 135l57 123l-90 -23q-43 -10 -78 -10q-8 2 -6 12t15 14q78 10 154.5 46t142.5 94q10 4 18 0t6 -15q-51 -68 -96 -148.5t-83 -163.5t-65.5 -165t-46.5 -153q-14 -18 -36.5 -28.5t-45.5 -10.5q-22 0 -22 18z" />
<glyph unicode="2" horiz-adv-x="567" d="M-2 13.5q0 13.5 10 23.5q88 59 172 107.5t149.5 96.5t104.5 102t39 126q0 53 -32.5 82t-88.5 29q-66 0 -109.5 -45.5t-58.5 -110.5q-6 -6 -14 0t-10 16q8 37 29.5 73t53 64.5t74.5 46t95 17.5q70 0 106.5 -42t36.5 -97q0 -61 -25.5 -110.5t-74.5 -94.5t-121 -91 l-164 -102q43 -14 100.5 -25t126.5 -11q80 0 109 51q8 8 15 1t3 -22q-29 -47 -69.5 -72.5t-102.5 -25.5q-57 0 -100 11.5t-77 21.5t-61.5 13t-54.5 -13q-18 -10 -29.5 -18.5t-21.5 -14.5q-10 0 -10 13.5z" />
<glyph unicode="3" horiz-adv-x="518" d="M-117 -193q4 6 12.5 8.5t12.5 -3.5q31 -94 168 -95q63 0 119.5 20.5t98.5 56.5t66.5 85t24.5 107q0 111 -46 165t-132 54q-49 0 -88 -27q-10 0 -14.5 9.5t1.5 19.5l159 67q65 29 105 57.5t57 60.5t17 77q0 53 -31.5 89t-88.5 36q-53 0 -88 -22.5t-58 -63.5q-6 -6 -16 0 t-6 16q25 47 78 82t139 35q76 0 115.5 -42t39.5 -91q0 -98 -69.5 -155.5t-206.5 -112.5q43 12 83 2.5t70.5 -35t48 -64.5t17.5 -82q0 -80 -39 -151.5t-102.5 -124.5t-147.5 -85t-172 -32q-66 0 -94.5 35.5t-32.5 103.5z" />
<glyph unicode="4" horiz-adv-x="743" d="M82 303q88 109 192.5 211t215 195.5t222 174.5t214.5 146q10 2 17 -3t3 -15q-63 -55 -108 -114.5t-86 -131.5q-53 -94 -102.5 -204.5t-92.5 -233.5q10 -2 21 -2h20q72 0 118 21.5t68 62.5q4 4 11.5 -1.5t3.5 -15.5q-37 -66 -92.5 -97.5t-153.5 -31.5h-18l-33 -109 l-33 -114q-8 -18 -34.5 -35.5t-49.5 -17.5q-20 0 -23 12l46 133q23 68 49 135q-70 6 -125.5 17.5t-96 18.5t-70.5 9t-46 -10q-4 -4 -8.5 -7t-8.5 -7q-8 -4 -16 0t-4 14zM184 375q59 -16 135 -28.5t162 -16.5q59 147 124 285.5t130 248.5q-82 -55 -154.5 -112.5t-139 -118 l-130.5 -124.5z" />
<glyph unicode="5" horiz-adv-x="512" d="M-143 -195q2 10 11 12.5t13 -3.5q23 -41 63 -58.5t113 -17.5q63 0 115.5 21.5t91.5 58.5t60.5 88t21.5 110q0 78 -39 140.5t-121 95.5q-47 16 -26 92q18 68 48 141.5t60 137.5q8 10 31 10q41 2 88 3t96 5q94 4 109 39q4 8 12 4t8 -14q-10 -35 -18 -54.5t-21.5 -31 t-35 -15.5t-54.5 -6q-16 0 -38.5 -1t-47 -3t-48 -3t-38.5 -1q-25 -2 -36 -8t-17 -19q-14 -31 -23.5 -56.5t-17.5 -53.5q-8 -35 0 -55.5t39 -36.5q82 -41 126 -107.5t44 -150.5q0 -74 -36 -143.5t-95 -123t-139 -85t-166 -31.5q-66 0 -97.5 33.5t-35.5 86.5z" />
<glyph unicode="6" horiz-adv-x="606" d="M102 221q0 76 26 165t70 178t106.5 172t137 147.5t157.5 102.5t171 38q55 0 89 -42t36 -103q-4 -8 -10 -9.5t-11 2.5q-25 41 -63.5 63.5t-103.5 22.5q-80 0 -151 -34.5t-131 -98t-109.5 -152.5t-88.5 -198q37 53 95.5 88t128.5 35q66 0 105.5 -54.5t39.5 -131.5 q0 -74 -32 -148t-83 -132t-113.5 -95t-123.5 -37q-72 0 -107 56t-35 165zM180 258q0 -109 33 -152t98 -43q33 0 69 19.5t65.5 57.5t48 94.5t18.5 132.5q0 72 -29.5 117.5t-95.5 45.5q-39 0 -76 -20.5t-66.5 -57t-47 -87t-17.5 -107.5z" />
<glyph unicode="7" horiz-adv-x="667" d="M-18 -311q55 80 107 144.5t106 122.5l107 116l113 124q58 67 120.5 147.5t130.5 184.5q-35 4 -65 8.5t-60.5 6.5t-67.5 3t-84 1q-55 0 -93 -7.5t-63.5 -27.5t-44 -55t-34.5 -90q-6 -10 -15.5 -3t-7.5 17q16 53 41 114.5t47 102.5q10 10 23.5 18.5t34 13.5t50 8t72.5 3 q70 0 135.5 -9t139.5 -24q29 -4 51 19q18 20 23 30q8 4 14 -3t2 -21q-98 -172 -190 -294l-174 -223l-158 -195q-76 -93 -142 -206q-14 -14 -48 -30.5t-54 -16.5q-8 0 -14 5.5t-2 15.5z" />
<glyph unicode="8" horiz-adv-x="624" d="M82 201q0 111 71.5 195.5t247.5 146.5q-39 45 -68.5 93t-29.5 118q0 39 18.5 77.5t52.5 70.5t81 52.5t104 20.5q76 0 122 -45t46 -109q0 -168 -215 -264q43 -47 79 -102.5t36 -139.5q0 -61 -28 -118.5t-74 -100.5t-107.5 -69.5t-128.5 -26.5q-98 0 -152.5 59.5 t-54.5 141.5zM166 242q0 -84 48 -134.5t140 -50.5q82 0 138.5 55.5t56.5 139.5q0 49 -11.5 87t-28.5 69.5t-40 59.5t-47 52q-145 -53 -200.5 -119.5t-55.5 -158.5zM379 801q0 -76 33.5 -126t79.5 -97q90 45 126.5 94t36.5 108q0 70 -40 108t-105 38q-59 0 -95 -35t-36 -90z " />
<glyph unicode="9" horiz-adv-x="622" d="M-90 -211q2 6 8 10t12 0q20 -27 53 -40t87 -13q145 0 244.5 98.5t164.5 335.5q-41 -61 -94 -99t-129 -38q-82 0 -123 51t-41 127q0 70 25.5 143.5t72 135t109.5 101.5t139 40t124 -51t48 -129q0 -150 -49 -288t-129 -245.5t-183.5 -172t-213.5 -64.5q-53 0 -86 26.5 t-39 71.5zM174 264q0 -78 33 -119t104 -41q41 0 80 27t68.5 70t47 97t17.5 112q0 76 -33.5 125t-111.5 49q-92 0 -148.5 -88.5t-56.5 -231.5z" />
<glyph unicode=":" horiz-adv-x="319" d="M41 43q0 12 8 27.5t22.5 30t32 23.5t33.5 9q10 0 15.5 -9t5.5 -22q0 -16 -9.5 -33.5t-22.5 -33t-28.5 -25.5t-29.5 -10q-27 0 -27 43zM166 436q0 12 9 26.5t22.5 29t31 23.5t35.5 9q20 0 21 -28q0 -16 -9.5 -35t-23.5 -34t-29.5 -25.5t-29.5 -10.5q-27 0 -27 45z" />
<glyph unicode=";" horiz-adv-x="319" d="M-12 -169q-2 7 4 15q45 29 73.5 72t28.5 90q0 43 -20 55q-6 6 1 18.5t19 25t25.5 22.5t21.5 10q10 -4 17.5 -25.5t7.5 -45.5q0 -63 -48 -132t-120 -112q-8 0 -10 7zM168 436q0 12 8 26.5t22.5 29t31 23.5t34.5 9q20 0 21 -28q0 -16 -9.5 -34t-22.5 -34t-28.5 -26.5 t-29.5 -10.5q-27 0 -27 45z" />
<glyph unicode="&#x3c;" horiz-adv-x="616" d="M112.5 289.5q8.5 13.5 39.5 23.5l88 29l121 39l129 41l112 35q12 -4 2 -22.5t-39 -28.5q-23 -6 -65 -21l-96 -31l-105 -33l-94 -32q59 -29 141 -65l154 -70q10 -8 -5.5 -22.5t-41.5 -10.5l-73 33l-92 42l-94 42l-79 34q-11 4 -2.5 17.5z" />
<glyph unicode="=" horiz-adv-x="616" d="M87 219.5q11 18.5 60 24.5q31 0 76 1t95.5 1t104.5 -1t103 -3q16 -2 2 -19.5t-39 -21.5q-92 2 -196.5 1t-202.5 -5q-14 4 -3 22.5zM137 369.5q10 17.5 62 23.5q31 0 75.5 1t95 1t104.5 -1t104 -3q16 -2 1.5 -19.5t-38.5 -19.5q-92 0 -196.5 -1t-203.5 -3q-14 4 -4 21.5z " />
<glyph unicode="&#x3e;" horiz-adv-x="616" d="M61.5 155.5q10.5 18.5 38.5 28.5l65 20q44 13 96 30l106 35l94 32q-59 29 -141 64.5t-154 70.5q-10 8 5 22.5t42 10.5l73 -33l92 -42l94 -42l79 -35q10 -4 2 -17t-39 -24l-88 -28l-122 -39l-129 -41l-112 -35q-12 4 -1.5 22.5z" />
<glyph unicode="?" horiz-adv-x="583" d="M113 43q0 12 9 27.5t22.5 30t31 23.5t35.5 9q10 0 15 -9t5 -22q0 -16 -9 -33.5t-23.5 -33t-29.5 -25.5t-30 -10q-26 0 -26 43zM229 298q-2 24 8.5 51.5t36.5 53.5q55 59 130 100.5t143.5 84.5t116 97t47.5 140q0 74 -43 120t-121 46q-76 0 -123 -42t-64 -101 q-8 -10 -20 0t-10 20q14 39 41.5 74t63.5 61.5t79 43t88 16.5q88 0 137 -55.5t49 -128.5q0 -86 -29.5 -144.5t-75.5 -100.5t-101 -72l-108 -56q-52 -27 -95 -56.5t-64 -70.5q-16 -31 -8 -59.5t51 -32.5q14 0 8 -9.5t-21 -19.5t-35.5 -17.5t-35.5 -2.5q-18 4 -30.5 20 t-14.5 40z" />
<glyph unicode="@" horiz-adv-x="1007" d="M102 231q0 100 36 193.5t102.5 165.5t161 113.5t212.5 41.5q68 0 124.5 -24.5t98.5 -66.5t65.5 -98t23.5 -120q0 -74 -26 -139.5t-70 -112.5t-100 -74.5t-118 -27.5q-43 0 -54 59.5t20 139.5q-47 -70 -95.5 -121t-95.5 -62q-29 0 -50.5 30t-21.5 91q0 53 22.5 107.5 t60.5 97.5t87.5 70.5t104.5 27.5t90 -28q10 8 26.5 16t32.5 8q6 0 6 -8q-45 -55 -73.5 -120.5t-41 -122t-4 -95.5t37.5 -39q96 0 157.5 75t61.5 198q0 63 -22.5 118.5t-62.5 96.5t-96.5 65.5t-126.5 24.5q-96 0 -171.5 -33t-130 -91.5t-83 -138t-28.5 -174.5 q0 -78 24.5 -146.5t70.5 -118.5t114.5 -79.5t158.5 -29.5q115 0 190 45t116 118q6 4 12 -2t4 -16q-53 -92 -150.5 -146.5t-224.5 -54.5q-88 0 -157.5 31t-117.5 84t-74 122.5t-26 149.5zM383 246q0 -35 13.5 -58.5t29.5 -23.5q18 0 46 25.5t57.5 66.5t59 90t52.5 98 q-16 45 -82 45q-35 0 -66.5 -17t-56 -50t-39 -77t-14.5 -99z" />
<glyph unicode="A" d="M112 343q19 91 87 171q6 4 14 -1t6 -19q-49 -53 -58 -123q-2 -16 -2 -32q0 -52 23 -101q31 -63 104.5 -106.5t192.5 -43.5q156 0 314.5 74t300.5 207q45 41 93 91l101 107q-141 -10 -254 -24q-10 2 -4 10t19.5 17.5t31 16.5t33.5 9q25 2 81 3t128 3l261 264 q144 141 335 291q-137 45 -283.5 75t-281.5 30q-154 0 -255.5 -89.5t-125.5 -271.5q-4 -10 -11.5 -8t-9.5 12q25 201 150 307.5t323 106.5q84 0 170 -11.5t168 -28.5t157 -38.5t136 -42.5q4 -4 4 -11t-10 -20q-68 -74 -121 -169t-91 -207.5t-58.5 -237.5t-20.5 -256 q0 -98 24.5 -152.5t84.5 -54.5q80 0 155 115q6 4 12.5 0t2.5 -12q-20 -35 -48 -69t-58.5 -61.5t-60.5 -45t-54 -17.5q-68 0 -104 68.5t-36 175.5q0 164 37 334q-96 0 -189 -2.5t-184 -6.5l-130 -135q-62 -63 -121 -117q-164 -150 -337 -233.5t-380 -83.5q-104 0 -169 50 t-88 126q-13 41 -13 88q0 38 9 79zM1374 602q98 2 195 2h151q35 150 96.5 292t147.5 259q-180 -145 -324 -286z" />
<glyph unicode="B" horiz-adv-x="1306" d="M63 260q-2 3 -2 6q0 5 7 12q10 9 25.5 16t33.5 10t31 -3q39 -41 79 -52q21 -6 46 -6q23 0 49 5q53 10 95 40.5t80 94t76 166t81 258.5q43 152 103 266.5t146 192.5q-18 4 -36 4h-41q-68 0 -134.5 -19.5t-126 -56.5t-106.5 -90t-78 -121q-4 -4 -9 -1t-3 11q25 63 75 123 t119.5 105t156.5 71.5t188 26.5h31q15 0 32 -2q74 51 176 76q10 0 10 -6.5t-10 -10.5q-35 -10 -69.5 -25.5t-65.5 -37.5q82 -12 142.5 -40t99.5 -68t57 -86t18 -95q0 -61 -23.5 -112.5t-62.5 -88.5t-89 -57.5t-101 -20.5q117 -53 170 -147t53 -195q0 -186 -132 -294.5 t-394 -108.5q-211 0 -382.5 69.5t-314.5 190.5zM270 211q104 -78 243.5 -129t293.5 -51q92 0 164.5 25.5t123 69.5t76 103.5t25.5 128.5q0 297 -309 379q-6 6 2 16.5t22.5 18.5t33 12t30.5 2q18 -8 33.5 -11t40.5 -3q37 0 72.5 15.5t63 44t45 66.5t17.5 85q0 98 -70.5 175 t-218.5 104q-68 -70 -121 -172.5t-89 -245.5q-53 -195 -109.5 -316.5t-116 -191.5t-123 -96.5t-129.5 -28.5z" />
<glyph unicode="C" horiz-adv-x="1140" d="M141 502q0 164 59.5 312.5t167 260t257 178t329.5 66.5q74 0 135.5 -7t105.5 -21.5t69.5 -34t25.5 -44.5q0 -16 -7 -39.5t-17.5 -48t-23.5 -49t-25 -41.5q-6 -4 -13.5 1t-3.5 14q27 48 27 82q0 19 -8 34q-29 47 -115 81t-199 34q-147 0 -268 -52t-208 -147.5t-135 -226.5 t-48 -289q0 -115 30.5 -212t90 -167.5t145.5 -110.5t197 -40q147 0 245.5 91t139.5 243q4 10 13 8t9 -12q-8 -43 -24.5 -95.5t-35 -98.5t-35.5 -80t-30 -38q-66 -25 -145.5 -39t-169.5 -14q-125 0 -224.5 38t-168 105.5t-105.5 160t-37 198.5z" />
<glyph unicode="D" horiz-adv-x="1636" d="M61 57q0 27 18.5 56.5t51.5 54.5t80 40t106 15q78 0 145.5 -14t131.5 -35q76 80 141.5 221.5t138.5 368.5q43 131 94.5 233.5t116.5 173.5q-80 41 -170 66t-188 25q-80 0 -146.5 -26t-117.5 -72t-84 -109.5t-45 -141.5q-12 -12 -17 9q8 86 45 158.5t99.5 126t149.5 83 t196 29.5q94 0 180 -22.5t164 -63.5q111 90 262 121q6 0 7 -7.5t-5 -11.5q-66 -16 -120 -48t-101 -77q100 -59 180 -142t136.5 -175t86 -187.5t29.5 -181.5q0 -115 -37 -210t-108.5 -165.5t-176 -109.5t-237.5 -39q-78 0 -145.5 10t-128 25.5t-115.5 34.5l-111 36 q-80 -55 -175 -80.5t-212 -25.5q-66 0 -92.5 15t-26.5 42zM122 95q0 -24 23 -40q27 -18 105 -18q86 0 154.5 17.5t127.5 62.5q-68 20 -139 34.5t-157 14.5q-55 0 -82 -19q-32 -21 -32 -52zM633 160l106 -37q55 -18 118 -33.5t137.5 -25t164.5 -9.5q195 0 292 109.5t97 294.5 q0 96 -28.5 193.5t-83 188.5t-130 168.5t-169.5 135.5q-53 -66 -94.5 -151t-75.5 -189q-76 -236 -155 -392.5t-179 -252.5z" />
<glyph unicode="E" horiz-adv-x="1011" d="M123 324q0 98 36 185t100.5 154.5t153.5 114.5t195 66q-66 35 -102.5 82t-36.5 102q0 57 29.5 109.5t82 92.5t123 64.5t154.5 24.5q49 0 96 -9.5t84 -24.5t58.5 -34.5t21.5 -40.5q0 -16 -7 -37.5t-16.5 -44t-20.5 -42t-17 -27.5q-4 -4 -11.5 -1t-5.5 11q12 23 18.5 50.5 t-9.5 54.5q-23 37 -86.5 73.5t-145.5 36.5q-68 0 -117 -18.5t-82.5 -49t-50 -68.5t-16.5 -77q0 -72 48 -122t165 -85q6 -4 1 -13t-15.5 -19.5t-23.5 -18.5t-21 -10q-20 1 -39 1q-202 0 -318 -101q-127 -110 -127 -330q0 -72 21.5 -133.5t61.5 -106.5t96.5 -70.5t127.5 -25.5 q168 0 274.5 78t153.5 252q6 10 13.5 6t9.5 -17q-25 -115 -58.5 -190.5t-62.5 -87.5q-72 -33 -173 -55.5t-206 -22.5q-86 0 -152.5 26.5t-111.5 71.5t-68.5 104t-23.5 122z" />
<glyph unicode="F" horiz-adv-x="1282" d="M102 272q0 59 32 119t91 101q10 0 13.5 -8.5t-0.5 -14.5q-37 -29 -54.5 -62.5t-17.5 -91.5q0 -53 18.5 -98t57.5 -79t100 -52t147 -18q102 0 184.5 29.5t151 98t127 180t111.5 273.5q-102 -4 -199.5 -12t-195.5 -23q-6 2 2 9.5t23.5 14.5l32.5 14t28 10q84 6 161.5 9 t155.5 5l21 67l20 72q25 88 50.5 154.5t58 113.5t72.5 79t93 52l-213 29.5t-194 13.5q-154 0 -258.5 -65.5t-151.5 -206.5q-6 -4 -12 -1t-6 13q45 145 177 233.5t327 88.5q76 0 152.5 -8t156.5 -20l165 -23q85 -12 177 -21q5 -4 5 -9q0 -4 -2 -8q-5 -11 -17.5 -21.5 t-28.5 -18.5t-31 -8q-49 4 -99 11t-99 15q-41 -12 -73 -35.5t-58.5 -63.5t-51 -101.5t-49.5 -151.5l-26.5 -92t-28.5 -88q51 2 103 2h108q10 -4 7 -10t-19 -11q-53 0 -105.5 -1t-101.5 -3q-121 -338 -304.5 -495.5t-437.5 -157.5q-147 0 -221 74.5t-74 197.5z" />
<glyph unicode="G" horiz-adv-x="1169" d="M-76 -70q0 88 40 159t136 116q10 4 13.5 -5.5t-2.5 -17.5q-100 -55 -101 -202q0 -143 86 -233.5t246 -90.5q221 0 386 150.5t267 486.5q-63 -53 -143 -89t-180 -36q-131 0 -196.5 74.5t-65.5 199.5q0 143 63.5 298t175 283t261 211t321.5 83q90 0 142 -39t52 -94 q0 -23 -10 -53.5t-26.5 -62.5t-34.5 -61l-33 -53q-8 -4 -15.5 1.5t-5.5 13.5q29 45 42.5 79.5t13.5 75.5q0 55 -50.5 91t-131.5 36q-141 0 -263.5 -58t-211.5 -159.5t-139 -242t-50 -302.5q0 -139 50 -210.5t155 -71.5q119 0 207 66.5t122 189.5q2 12 18.5 20.5t34 11.5 t32 1t14.5 -13q-68 -238 -158 -402.5t-198.5 -267t-232.5 -148.5t-257 -46q-94 0 -164 24.5t-116 67.5t-69.5 99.5t-23.5 119.5z" />
<glyph unicode="H" horiz-adv-x="1771" d="M102 188q0 80 48.5 154t139.5 130t223 90t302 34h45q23 0 45 -2q10 29 18.5 58.5l18.5 62.5q33 121 64.5 206t63.5 143t65.5 92t72.5 54q-53 20 -125.5 35t-158.5 15q-96 0 -165 -29t-109 -78t-53 -113q-6 -31 -6 -62q0 -34 7 -71q-2 -10 -8 -12t-12 6q-9 43 -9.5 84 t9.5 79q18 77 71 134t140.5 90t207.5 33q84 0 164 -19.5t144 -46.5q8 -12 -0.5 -22t-38.5 -23q-41 -16 -71 -44.5t-54.5 -78t-47 -121t-49.5 -173.5l-31 -105q-15 -51 -32 -98q135 -10 276.5 -32.5t270.5 -53.5q70 211 159 375.5t186 279.5t198.5 175.5t199.5 60.5 q43 0 65.5 -28t22.5 -64q0 -29 -7 -56.5t-19 -48.5q-4 -4 -9.5 -2t-5.5 10q6 18 6 35q0 25 -14 45q-23 33 -82 33q-90 0 -172 -40t-159.5 -136t-151.5 -256t-146 -402l53 -15l50 -13q10 -8 -20 -23q-26 -13 -60 -12h-10q-8 2 -29 10q-6 -25 -13 -50.5t-16 -51.5 q-26 -99 -26 -157q0 -82 53 -83q80 0 156 115q6 6 12 2t4 -14q-23 -35 -50.5 -69t-58 -61.5t-60.5 -45t-54 -17.5q-61 0 -85 62q-10 25 -10 63q0 55 21 135q25 104 55 195q-121 37 -258 65.5t-284 40.5q-57 -150 -129 -256t-155 -174t-176 -99.5t-194 -31.5 q-106 0 -159.5 52t-53.5 136zM164 229q0 -88 54 -134t153 -46q90 0 165.5 25.5t139 86t118 159t103.5 245.5q-31 4 -60 4h-61q-145 0 -260 -27.5t-192.5 -74.5t-118.5 -108.5t-41 -129.5z" />
<glyph unicode="I" horiz-adv-x="1134" d="M102 190q0 63 53.5 127t143.5 105q10 -2 11 -8t-3 -11q-63 -35 -94 -79.5t-31 -92.5q0 -70 63.5 -121t192.5 -51q162 0 288 67t222 224q-104 6 -159.5 80t-55.5 191q0 127 61.5 251.5t167 225t248 162t301.5 61.5q5 -3 5 -8q0 -9 -11 -23q-8 -10 -18 -20t-19 -15 q-41 -12 -73.5 -32.5t-63.5 -63.5t-59.5 -117.5t-59.5 -193.5q-74 -281 -200 -475q29 4 54.5 14t39.5 19q6 2 8 -3.5t-2 -11.5q-43 -29 -113 -39q-119 -172 -276.5 -262t-351.5 -90q-123 0 -196 55t-73 135zM760 629q0 -123 54 -187.5t147 -70.5q47 82 88 189.5t75 242.5 q23 86 47.5 154.5t55 122t68.5 93t85 68.5q-141 -16 -255.5 -78.5t-195.5 -148.5t-125 -187.5t-44 -197.5z" />
<glyph unicode="J" horiz-adv-x="1298" d="M0 -147q0 78 43 161.5t118 157.5t178 129t226 78q10 0 10 -8.5t-10 -12.5q-109 -20 -199 -66t-155.5 -107.5t-102 -133t-36.5 -145.5q0 -102 62.5 -165t211.5 -63q121 0 232.5 37t212 117t189.5 207t167 307q-109 4 -175.5 77t-66.5 195q0 127 61.5 252t167 225.5 t248 162t301.5 61.5q4 -3 5 -7q0 -2 -1 -5q-3 -8 -10.5 -18.5t-17.5 -21t-19 -14.5q-43 -12 -78.5 -36.5t-66.5 -71.5t-58.5 -120t-54.5 -179q-35 -135 -75.5 -252t-87.5 -221q25 4 47 13t34 17q14 0 9 -14q-37 -27 -99 -37q-88 -188 -194.5 -325.5t-225 -227.5t-248.5 -134 t-266 -44q-141 0 -208.5 67t-67.5 165zM932 627q0 -119 59.5 -186.5t163.5 -73.5q76 186 141 434q45 178 108.5 284.5t147.5 155.5q-141 -18 -255.5 -79.5t-195.5 -148.5t-125 -188.5t-44 -197.5z" />
<glyph unicode="K" horiz-adv-x="1916" d="M102 221q0 41 12.5 83t34 79t53 65.5t68.5 47.5q12 0 15.5 -6.5t-0.5 -14.5q-53 -29 -82 -81t-29 -115q0 -98 68.5 -161t193.5 -63t222.5 32t171 101.5t124 181t78.5 271.5q27 147 54.5 245.5t58.5 163t65.5 99.5t75.5 57q-53 20 -124.5 33.5t-155.5 13.5 q-127 0 -223.5 -44t-157 -119.5t-80.5 -179.5q-9 -47 -10 -97q0 -60 14 -125q0 -10 -8.5 -14t-14.5 6q-15 68 -15 133q0 56 11 110q25 116 95.5 203.5t187.5 140t274 52.5q86 0 166 -18.5t144 -47.5q8 -12 -1.5 -21t-39.5 -24q-43 -18 -75 -51t-56.5 -90t-46 -144 t-42.5 -212q-31 -176 -98 -309.5t-164.5 -222.5t-220.5 -134t-262 -45q-145 0 -213 63.5t-68 157.5zM1198 698q-2 6 -2 13q0 14 10 28q92 119 191.5 225.5t198 184.5t190.5 124t170 46q35 0 59.5 -26.5t24.5 -69.5q0 -29 -5 -52.5t-20 -56.5q-6 -6 -12 -4t-8 10q3 15 3 29 q0 31 -17 56q-24 36 -91 36q-57 0 -133 -36t-160 -100.5t-171 -154.5t-166 -196q45 -160 90 -288t98 -217t120.5 -136t155.5 -47q45 0 83 23.5t61 60.5q6 6 12 -0.5t4 -16.5q-31 -57 -85 -95t-134 -38q-94 0 -166 56.5t-127 152.5t-97 223t-77 266z" />
<glyph unicode="L" horiz-adv-x="1345" d="M61 100q0 27 15.5 54.5t45.5 49t70.5 36t92.5 14.5q80 0 154.5 -22.5t152.5 -51.5q92 119 162 381q45 168 105.5 308.5t135 239.5t164.5 154.5t193 55.5q66 0 99.5 -43t33.5 -107q0 -41 -14.5 -86t-32.5 -82q-8 -6 -15.5 -3t-5.5 14q14 37 14.5 75.5t-15 70.5t-49.5 52.5 t-85 20.5q-74 0 -135.5 -27.5t-113.5 -97.5t-99 -189.5t-94 -304.5q-39 -147 -90.5 -257.5t-118.5 -186.5q88 -35 185 -61.5t218 -26.5q96 0 158.5 33.5t110.5 128.5q8 4 14 -1t2 -16q-49 -111 -131 -168t-219 -57q-121 0 -215.5 35t-182.5 76q-137 -111 -352 -111 q-78 0 -118 31.5t-40 68.5zM121 143q0 -41 43 -70.5t121 -29.5t139 18.5t115 63.5q-72 35 -147 59.5t-165 24.5q-57 0 -81.5 -18.5t-24.5 -47.5z" />
<glyph unicode="M" horiz-adv-x="2496" d="M104 350q0 98 46.5 180t136.5 129q8 4 11 -4t-1 -16q-63 -41 -89 -94t-26 -139q0 -68 22.5 -128.5t66.5 -105.5t108.5 -71.5t150.5 -26.5q180 0 345 83t321 228t305.5 340t298.5 420q-143 49 -300 83t-300 34q-154 0 -256 -89.5t-125 -271.5q-4 -10 -11 -8t-9 12 q23 201 147.5 307.5t325.5 106.5q84 0 170 -11.5t168 -28.5t156.5 -38.5t136.5 -42.5q4 2 9 2t9 2q8 0 9 -8t-3 -14q-29 -18 -47 -45t-41 -70q-102 -205 -162.5 -429t-101.5 -454q96 170 221 340t264.5 323.5t286.5 281.5t287 216q10 0 14 -10q2 -4 2 -8q0 -6 -4 -10 q-98 -86 -177 -206t-136.5 -253t-88 -271.5t-30.5 -258.5q0 -111 26.5 -173.5t73.5 -62.5q78 0 154 115q6 6 13 1t5 -13q-23 -35 -50.5 -69t-58 -61.5t-60 -45t-54.5 -17.5q-53 0 -94 62.5t-41 191.5q0 106 21.5 229t64.5 247t107.5 240.5t148.5 213.5q-127 -94 -259 -226.5 t-254 -283t-226.5 -309t-174.5 -306.5q-8 -14 -30.5 -36.5t-34.5 -22.5q-14 0 -14 14q39 317 111.5 564t172.5 456q-164 -246 -321.5 -438.5t-315 -324.5t-321.5 -201.5t-340 -69.5q-84 0 -149.5 26.5t-112.5 73.5t-72 110.5t-25 139.5z" />
<glyph unicode="N" horiz-adv-x="2027" d="M115 411q27 103 114 183q10 2 15.5 -5t1.5 -18q-59 -59 -76 -142q-5 -28 -5 -54q0 -54 21 -105q33 -76 117 -129t227 -53q141 0 264.5 68.5t220.5 198.5t165.5 319.5t103.5 431.5q-86 72 -178 108.5t-193 36.5q-98 0 -162.5 -45t-93.5 -100q-6 -4 -13 -2t-9 12 q18 39 50 76t73 64.5t94 45t115 17.5q86 0 169 -32t160 -91v4q2 12 10.5 28.5t17.5 30t17.5 18.5t10.5 -5q-2 -29 -5.5 -56.5t-7.5 -54.5q88 -78 168 -182.5t147.5 -227t122 -259t95.5 -275.5q14 123 47 253t80 252t105.5 230.5t123 190.5t131 129t131.5 47q57 0 91 -44 t34 -153q-2 -12 -11 -13t-13 11q-4 37 -26.5 63.5t-55.5 38.5q-23 8 -49 7q-12 0 -24 -1q-40 -5 -79 -34q-100 -72 -184 -203t-147.5 -289.5t-100.5 -332.5t-43 -332q0 -23 -4 -30t-14 -7q-8 0 -13.5 9t-9.5 22q-92 350 -221 617t-295 421q-45 -254 -129 -452.5t-196.5 -336 t-245.5 -209t-275 -71.5q-145 0 -235 62.5t-123 153.5q-18 50 -18 104q0 45 12 91z" />
<glyph unicode="O" horiz-adv-x="1241" d="M143 475q0 156 59.5 308.5t164 271.5t245 192.5t301.5 73.5q96 0 174 -37t132.5 -102.5t84 -154.5t29.5 -196q0 -168 -64.5 -318.5t-169 -264t-239.5 -181t-276 -67.5q-109 0 -191 39t-137 104.5t-84 151.5t-29 180zM229 543q0 -106 30 -194.5t86 -152t139 -98.5t188 -35 q106 0 209.5 51.5t185.5 144.5t133 223t51 288q0 225 -107.5 353t-295.5 128q-137 0 -251 -55t-196 -151.5t-127 -225.5t-45 -276z" />
<glyph unicode="P" horiz-adv-x="1603" d="M102 299q0 39 11.5 79t31 75.5t48 65.5t63.5 46q20 4 12 -14q-59 -33 -88.5 -88t-29.5 -119q0 -59 21.5 -110.5t62 -90.5t100 -60.5t137.5 -21.5q94 0 173 25t145.5 85t124 161.5t110.5 255.5q-23 33 -39 71.5t-27 85.5q2 8 8.5 11.5t10.5 -2.5q18 -80 57 -133l43 141 q47 174 103.5 300t134.5 206q-12 2 -26 2h-27q-217 0 -368 -104.5t-210 -309.5q-6 -6 -12 -1t-6 22q70 205 231.5 323.5t427.5 118.5h24q11 0 21 -2q70 53 162 76q10 0 11 -6.5t-9 -10.5q-35 -10 -63.5 -25.5t-55.5 -37.5q90 -12 160 -50t117 -93.5t71.5 -122t24.5 -138.5 q0 -94 -34 -175t-96.5 -141.5t-153.5 -95t-208 -34.5q-137 0 -219 67q-123 -276 -292 -403t-369 -127q-78 0 -136.5 25.5t-98.5 66.5t-59.5 95.5t-19.5 111.5zM1092 563q82 -59 225 -59q86 0 156.5 28.5t121 79t77 118t26.5 144.5q0 72 -21.5 136.5t-63.5 115t-104.5 86 t-142.5 50.5q-55 -68 -98 -168.5t-78 -233.5q-43 -164 -98 -297z" />
<glyph unicode="Q" horiz-adv-x="1153" d="M123 62q0 10 20 22q39 23 76 22q25 0 61.5 -16t65.5 -16q158 0 304.5 55t258 156.5t179 242t67.5 310.5q0 94 -22.5 175t-67.5 139t-109.5 91t-150.5 33q-115 0 -210 -48t-165 -134t-107.5 -206t-37.5 -265q0 -111 48 -191t144 -96q22 -4 39 -4q41 0 62 20q8 2 12 -4 t2 -14q-18 -23 -57 -38t-86 -15q-55 0 -98.5 24.5t-74 66.5t-47 98t-16.5 122q0 139 48 270t131 232.5t196.5 163t245.5 61.5q100 0 178 -32t131 -90t80.5 -138t27.5 -178q0 -160 -68.5 -303.5t-183 -255t-265 -185.5t-316.5 -94q53 -18 117 -48l132 -64l143 -68 q75 -35 148 -64q78 -31 142.5 -45t142.5 -14q104 0 173 27.5t118 80.5q6 4 14 1q5 -2 6 -7q0 -3 -2 -6q-55 -78 -142 -128t-210 -50q-43 0 -79 4t-71.5 13.5t-72.5 22.5t-80 34q-102 45 -209 100l-206 103q-99 48 -189 80q-85 30 -150 30h-8q-12 5 -12 17z" />
<glyph unicode="R" horiz-adv-x="1748" d="M100 233q0 78 42 155t112 112q18 4 14 -17q-61 -31 -91 -87t-30 -117q0 -106 63.5 -162t182.5 -56q106 0 193.5 32t159 111t133 214t118.5 342q49 176 106.5 302t135.5 208q-385 -8 -586 -293q-6 -4 -13 0t-3 14q98 143 262 230.5t395 95.5q35 27 74 46t86 30 q10 0 10 -7.5t-10 -11.5q-59 -16 -108 -55q72 0 131 -27.5t102 -72.5t66.5 -101.5t23.5 -118.5q0 -82 -37 -151.5t-97 -118.5t-139 -75q-68 -22 -140 -22q-11 0 -23 1q33 -176 71.5 -286.5t86 -173t101.5 -85t116 -22.5q43 0 74.5 21.5t64.5 66.5q4 6 13 5t7 -12 q-45 -68 -102 -107.5t-123 -39.5q-90 0 -153.5 51t-109.5 138t-77 202t-57 240q0 12 8 18l23 9q12 5 34 16q6 2 17.5 -1t30 -6t44 -3t60.5 8q106 25 165.5 98.5t59.5 183.5q0 131 -77.5 217t-215.5 97q-57 -66 -101 -169.5t-81 -240.5q-59 -225 -140 -388t-179.5 -267.5 t-213 -153.5t-241.5 -49q-61 0 -105.5 18.5t-74 51t-44 74.5t-14.5 89z" />
<glyph unicode="S" horiz-adv-x="983" d="M102 248q0 70 36 128t104 93q8 4 11 -5t-1 -15q-74 -41 -74 -148q0 -53 22.5 -99t64.5 -80t102.5 -54.5t138.5 -20.5q186 0 275 80t89 197q0 78 -22.5 141t-56 119.5t-72.5 107.5t-73 102.5t-56.5 106.5t-22.5 121q0 61 24.5 115.5t65.5 94.5t97.5 63.5t122.5 23.5 q92 0 145 -47t53 -107q0 -35 -22.5 -75.5t-44.5 -71.5q-8 -4 -13.5 1t-5.5 15q27 33 27 90q0 59 -52.5 101.5t-138.5 42.5q-88 0 -142 -50.5t-54 -125.5q0 -61 23.5 -115.5t58 -109t74.5 -108.5t75 -112.5t58.5 -123t23.5 -140.5q0 -84 -37 -154.5t-100.5 -122t-149.5 -79 t-182 -27.5q-180 0 -275.5 69.5t-95.5 178.5z" />
<glyph unicode="T" horiz-adv-x="1181" d="M102 231q0 123 121 205q8 0 10.5 -8t-2.5 -14q-29 -23 -42 -48.5t-13 -72.5q0 -104 73 -164.5t216 -60.5q98 0 180 26.5t150.5 91t127 173t111.5 272.5q74 229 176.5 369.5t231.5 175.5q-137 35 -284.5 55t-293.5 20q-115 0 -204 -37.5t-148 -101t-86 -148.5 q-18 -58 -18 -120q0 -28 4 -58q-12 -18 -23 -2q-4 31 -4 62q0 69 19 135q28 96 95.5 172t176 121t256.5 45q219 0 398 -36t327 -81q6 -6 6 -12q0 -8 -8 -19q-29 -42 -45 -41h-4l-49.5 15.5t-51.5 13.5q-115 -10 -205 -119.5t-161 -345.5q-106 -346 -296 -519t-458 -173 q-74 0 -127 19.5t-88 51t-51.5 73.5t-16.5 85z" />
<glyph unicode="U" horiz-adv-x="1540" d="M156 890q25 122 92 217t177 153.5t255 58.5q86 0 166 -18.5t143 -47.5q12 -10 -6 -24q-109 -86 -191.5 -193.5t-141 -227.5t-88.5 -246t-30 -249q0 -135 47.5 -188t125.5 -53q106 0 208.5 71.5t210 220t227 375t259.5 535.5q8 16 34.5 30.5t55.5 14.5q33 0 33 -14 q-37 -43 -82 -122t-89 -178.5t-86 -212t-75 -220t-52.5 -203t-19.5 -162.5q0 -117 76 -117q78 0 151 115q6 6 14.5 1t6.5 -13q-23 -35 -50.5 -69t-58 -61.5t-60.5 -45t-54 -17.5q-57 0 -83 47t-26 113q0 102 31 243.5t96 305.5q-186 -350 -368.5 -529.5t-362.5 -179.5 q-98 0 -148.5 66.5t-50.5 189.5q0 125 32 252t91.5 249t144.5 234.5t193 208.5q-53 20 -133 36.5t-164 16.5q-125 0 -215 -54t-143 -141t-71 -196q-8 -47 -7 -94q0 -61 12 -121q-2 -8 -10 -12t-12 4q-15 69 -16 137q1 58 12 114z" />
<glyph unicode="V" horiz-adv-x="1353" d="M143 797q59 256 168 389t262 133q94 0 162 -47t113 -129t65.5 -193.5t20.5 -241.5t-21.5 -272.5t-60.5 -285.5l258 223t192.5 205.5t119.5 206t42 223.5q0 102 -47 161.5t-119 63.5h-2q-56 0 -96 -82q-6 -4 -12 0t-6 14q10 29 29.5 56.5t41 49t44 35t38.5 13.5 q43 0 80 -18.5t64.5 -51t43 -77t15.5 -95.5q0 -158 -67.5 -292t-178 -260t-252.5 -254l-288 -273q-14 0 -17.5 7t-0.5 19.5t9 26.5l13 29q45 109 73.5 239t35.5 260q3 46 3 90q0 83 -9 161q-13 122 -53 216.5t-105.5 150.5t-161.5 56q-139 0 -227.5 -117.5t-147.5 -342.5 q-4 -8 -12.5 -6t-8.5 10z" />
<glyph unicode="W" horiz-adv-x="1683" d="M147 838q-1 12 0 24q0 85 25 163q29 89 83 156.5t132 107.5t176 40q84 0 141.5 -43t90 -119.5t43.5 -180.5q5 -52 5 -108t-5 -116q-10 -121 -40 -254t-75 -266q55 127 130 267t160 273t174 248t175 193q6 2 11 -4.5t7 -16.5t1 -20.5t-7 -18.5q-29 -18 -48 -35.5 t-42 -46.5q-35 -45 -48 -114.5t-14 -151.5v-16q0 -75 8 -158q9 -92 17 -183t13 -177q1 -29 1 -56q0 -54 -6 -102q78 117 178.5 224.5t190.5 220t151.5 237.5t61.5 278q0 66 -18.5 109t-53.5 47q-25 2 -43 -23.5t-32 -56.5q-20 -8 -21 15q23 57 59.5 101t71.5 44q49 0 79 -49 t30 -119q0 -123 -33 -224.5t-87 -190.5t-124 -171l-142 -163l-144 -165q-71 -85 -128 -182q-16 -25 -29.5 -40t-29.5 -15q-10 0 -13 6t-3 16.5t3 23.5t3 26q3 50 3 102q0 73 -6 151l-22 260q-10 126 -10 229.5t33 162.5l-138 -203q-61 -94 -116.5 -191.5t-107.5 -205 t-109 -238.5q-31 -72 -40.5 -105.5t-27.5 -33.5q-16 0 -20.5 15.5t10.5 56.5q104 274 138 493q20 129 20 236q0 74 -10 137q-24 154 -98.5 235.5t-184.5 81.5q-76 0 -136.5 -30.5t-102.5 -86t-64.5 -131t-22.5 -163.5q-4 -12 -13.5 -14t-9.5 8z" />
<glyph unicode="X" horiz-adv-x="1665" d="M102 119q0 16 8.5 46t24 65.5t37 74.5t45.5 76q6 6 16.5 1t6.5 -17q-33 -47 -44 -91q-7 -28 -8 -55q0 -15 2 -31q6 -47 44 -73.5t110 -26.5q90 0 172 42t159 118t146.5 181.5t134.5 232.5q-27 129 -42 233t-29.5 177t-34 112t-53.5 39q-41 0 -81 -48.5t-79 -121.5 q-10 -10 -19.5 -5t-5.5 17q23 49 53.5 95t62.5 82t63.5 57.5t54.5 21.5q45 0 69.5 -51t39 -133t25.5 -185.5t32 -206.5q57 125 132 231.5t161 182.5t178 119t184 43q29 0 47.5 -27.5t18.5 -85.5q0 -47 -16.5 -105.5t-39.5 -96.5q-8 -4 -16 0t-6 14q20 49 20 94 q0 53 -22.5 81t-79.5 28q-72 0 -146.5 -40t-147.5 -111t-138.5 -167t-118.5 -209q61 -283 175 -445.5t267 -162.5q53 0 97.5 34t76.5 114q6 8 13.5 2.5t7.5 -19.5q-53 -123 -108.5 -170t-127.5 -47q-90 0 -162.5 50t-130 135t-98.5 197t-67 232v2q-160 -307 -335 -461.5 t-341 -154.5q-86 0 -136.5 35t-50.5 82z" />
<glyph unicode="Y" horiz-adv-x="1355" d="M14 94q0 78 28 151.5t82 132t135 99.5t190 53q10 -2 9 -10t-12 -18q-94 -12 -160.5 -44t-109.5 -79t-62.5 -106.5t-19.5 -127.5q0 -156 90 -247t269 -91q131 0 249.5 45.5t233.5 152t230.5 281.5t242.5 433q-57 -94 -128 -175t-144.5 -141.5t-146 -94.5t-134.5 -34 q-92 0 -130 54q-27 39 -27 99q0 23 3 48q16 113 51 225l66 218q33 102 47 167q13 57 13 95q0 47 -17 63q-14 14 -41 14q-25 0 -51.5 -12t-51 -30.5t-46 -41t-33.5 -45.5q-8 -8 -15.5 -0.5t-5.5 17.5q14 23 41 53.5t63 57t75 45t77 18.5q37 0 58.5 -18.5t28.5 -61.5 q2 -14 2 -31q0 -34 -9 -81q-12 -69 -45 -169l-73 -226q-33 -101 -50 -204q-4 -29 -4 -54q0 -49 17 -79q25 -45 104 -45q178 0 370.5 235.5t424.5 700.5q39 33 69 33q18 0 18 -18q0 -5 -1 -11q-211 -449 -389 -747.5t-344 -478t-330 -253t-346 -73.5q-86 0 -153.5 28.5 t-114 78t-70 113.5t-23.5 136z" />
<glyph unicode="Z" horiz-adv-x="1280" d="M104 29l324 305l291 275l285 270l303 286q-106 29 -221 49.5t-238 20.5q-139 0 -208 -76t-89 -203q-6 -8 -15.5 -5t-9.5 14q14 78 40 143.5t69 112.5t105.5 72.5t150.5 25.5q102 0 188 -20.5t191 -53.5q46 -15 70 -14h6q25 2 53 26q14 10 49 11q18 0 14 -17l-275 -255 l-298 -278l-302 -286l-290 -274q12 1 23 1q38 0 77 -11l115 -29q63 -16 147 -31.5t199 -15.5q143 0 233.5 62.5t153.5 207.5q8 4 18.5 -1t6.5 -15q-41 -86 -86 -150.5t-101.5 -107.5t-129 -63.5t-165.5 -20.5q-74 0 -132 7t-109 19.5t-97.5 27.5l-97.5 30q-37 11 -67 10 q-22 0 -40 -5q-44 -13 -102 -73q-12 -4 -28 7q-12 8 -12 16q-1 3 1 6z" />
<glyph unicode="[" horiz-adv-x="651" d="M162 -172l92 361l92 366l87 358q42 176 77 340q4 14 9 18.5t24 4.5h84h71q35 0 74 -1t90 -3q20 -4 10 -18.5t-34 -16.5q-49 4 -115 4h-125l-187 -739q-87 -358 -143 -664q35 0 59.5 -1t48 -1t49.5 1t62 1q14 -6 10.5 -19.5t-38.5 -15.5h-72q-27 0 -53.5 1t-59 2t-88.5 1 q-24 1 -24 21z" />
<glyph unicode="\" horiz-adv-x="434" d="M61 1272q4 16 18.5 25.5t20.5 -7.5q20 -133 55 -312l70 -367l73 -362l62 -298q2 -23 -14 -33t-27 6l-60 305l-69 351l-68 359z" />
<glyph unicode="]" horiz-adv-x="694" d="M35 -175q10 15 37 17q47 -4 112.5 -5t124.5 1l188 739q87 357 142 662q-35 2 -60.5 3t-48 1t-48 -1t-62.5 -1q-14 4 -10 17.5t39 17.5q45 0 71.5 -1t53 -1t59.5 -1t88 -3q25 0 24 -19l-93 -361l-91 -366l-87 -359q-42 -177 -77 -341q-2 -12 -8 -16.5t-24 -4.5h-84h-72 q-35 0 -74 1t-90 1q-20 5 -10 20z" />
<glyph unicode="^" horiz-adv-x="557" d="M104 385l118 154q71 90 149 200q18 25 32 -4l55 -163q28 -81 56 -152q2 -10 -2 -22.5t-13.5 -21.5t-19.5 -13.5t-16 2.5l-51 148l-50 144l-59 -74l-63 -80l-63 -76l-54 -65q-8 -4 -15.5 3.5t-3.5 19.5z" />
<glyph unicode="_" horiz-adv-x="729" d="M-28 -100.5q5 8.5 18.5 16.5t32 15.5t34.5 9.5q35 2 110 4t162 3t171 1h137q10 -4 8 -16.5t-18 -14.5q-53 0 -132 -1t-168 -4t-181.5 -9t-168.5 -15q-10 2 -5 10.5z" />
<glyph unicode="`" horiz-adv-x="317" d="M47 743q-12 4 0 17q18 16 47 24.5t35 3.5q29 -29 69 -61l76 -61q4 -4 -1 -10.5t-15 -8.5q-51 16 -110.5 42.5t-100.5 53.5z" />
<glyph unicode="a" horiz-adv-x="602" d="M63 147q0 68 28 134.5t75 121t108.5 87t128.5 32.5q37 0 64 -8t49 -25q12 10 33.5 19.5t40.5 9.5q7 0 7 -5q0 -2 -1 -5q-47 -57 -81 -127t-52.5 -135.5t-23.5 -115.5q-2 -15 -1 -27q0 -29 8 -42q10 -14 37 -0.5t70 68.5q4 4 10 0t4 -12q-43 -59 -85 -88t-70 -29 q-18 0 -29.5 18.5t-14.5 50.5l-2 25q0 22 4 46q5 40 17 83q-55 -86 -116.5 -148.5t-118.5 -74.5q-37 0 -63 35.5t-26 111.5zM143 174q0 -45 15.5 -74.5t38.5 -29.5t58.5 31.5t74.5 83t76.5 116t66.5 129.5q-8 27 -37.5 43t-68.5 16q-45 0 -85 -23.5t-71 -65.5t-49.5 -99 t-18.5 -127z" />
<glyph unicode="b" horiz-adv-x="505" d="M72 94q0 45 14 119t39 163t59.5 187.5t75.5 194.5q172 406 345 598t360 192q66 0 95 -51q19 -33 19 -73q0 -22 -6 -46q-12 -12 -20 2q-4 41 -36 71t-97 30q-92 0 -187.5 -55.5t-188.5 -184.5t-182.5 -341t-171.5 -525q18 27 42 52.5t52.5 47t59.5 34.5t62 13 q47 0 66.5 -39t19.5 -90q0 -66 -33 -136.5t-83 -127.5t-109.5 -94t-110.5 -37q-37 0 -60.5 21.5t-23.5 74.5zM150 141q-1 -9 -1 -17q0 -31 12 -46q15 -18 46 -19q39 0 78 26t69.5 67t50 92t19.5 102q0 59 -18.5 84t-45.5 25q-31 0 -65.5 -19.5t-65 -58.5t-52 -98.5 t-27.5 -137.5z" />
<glyph unicode="c" horiz-adv-x="415" d="M61 121q0 72 24 143.5t61.5 129t87 93t100.5 35.5q43 0 67.5 -20.5t24.5 -48.5q0 -10 -6 -24.5t-15.5 -29t-20.5 -26t-19 -15.5q-10 0 -11 11q8 21 9 39q0 17 -8 32q-15 31 -62 31q-33 0 -61.5 -23.5t-49 -65.5t-33 -98.5t-12.5 -121.5q0 -100 70 -101q80 0 160 97 q8 4 14 -1t2 -16q-47 -59 -104.5 -101t-112.5 -42q-45 0 -75 33t-30 90z" />
<glyph unicode="d" horiz-adv-x="583" d="M61 125q0 78 27 150.5t73 128t106.5 89t129.5 33.5q23 0 40.5 -6t31.5 -16q37 111 89 231.5t113.5 236t130 220t141.5 183.5t146.5 126t143.5 47q53 0 67 -41q5 -14 5 -29q0 -32 -19 -73q-16 -12 -20 6q4 29 -16.5 45.5t-57.5 16.5q-74 0 -149.5 -51.5t-147.5 -142.5 t-139.5 -214t-125 -266.5t-103.5 -300t-74 -314.5q-5 -31 -6 -57q0 -13 2 -26q4 -36 28 -35q23 0 45.5 23.5t40.5 51.5q4 4 11.5 0t5.5 -12q-10 -18 -29 -40.5t-40.5 -42t-44 -33t-40.5 -13.5q-35 0 -48 30q-10 23 -10 55q0 10 1 21q2 35 8 66t14 66q-18 -43 -49 -83 t-63.5 -73t-64.5 -54.5t-54 -27.5q-35 0 -67 29.5t-32 95.5zM139 156q0 -43 17.5 -63.5t40.5 -20.5t54.5 25.5t63 66.5t61.5 95t50 112l12 38.5t11 36.5q-8 25 -31 36.5t-51 11.5q-43 0 -84 -26t-73 -71t-51.5 -106t-19.5 -135z" />
<glyph unicode="e" horiz-adv-x="421" d="M61 137q0 61 22.5 130t59.5 126.5t85 94t102 36.5q39 0 65.5 -27.5t26.5 -62.5q0 -29 -22.5 -53.5t-61.5 -44t-89 -35.5t-106 -31q-2 -23 -3 -45t-1 -49q0 -51 22.5 -86t63.5 -35t77 20.5t65 55.5q8 4 12 -2t0 -14q-35 -47 -87 -81t-110 -34q-53 0 -87 34.5t-34 102.5z M150 301q98 14 144 42t46 63q0 29 -14.5 47t-38.5 18q-47 0 -84 -41t-53 -129z" />
<glyph unicode="f" horiz-adv-x="319" d="M-596 -395q0 18 8 39.5t21 38.5q6 6 11 2t5 -11q-8 -16 -6 -37.5t17.5 -41t45 -33t76.5 -13.5q49 0 97.5 12.5t96.5 46.5t96 95t99.5 160.5t106.5 241t115 335.5q4 10 6 19.5t6 19.5q-35 -4 -70 -9t-69 -13q-10 2 -5 10t18 16.5t31.5 15.5t34.5 9t34 3t36 3 q74 221 159 400.5t179 307.5t194.5 197.5t202.5 69.5q39 0 65.5 -16.5t40 -43t13.5 -58.5t-14 -62q-4 -6 -10.5 -4t-10.5 8q-4 41 -37.5 72.5t-105.5 31.5q-78 0 -148.5 -41t-143.5 -143.5t-147.5 -276.5t-160.5 -440q47 2 99 2h108q10 -4 9 -11t-20 -11l-102 -4 q-51 -2 -104 -7q-6 -23 -15 -41q-84 -268 -172 -449t-180 -291t-187.5 -156t-193.5 -46q-70 0 -99.5 31t-29.5 72z" />
<glyph unicode="g" horiz-adv-x="430" d="M-233 -258q0 61 44 107.5t126 68.5q10 0 13 -7t-3 -13q-43 -16 -70 -49t-27 -89q0 -104 72 -167.5t189 -63.5q98 0 145 50t47 130q0 47 -14.5 84t-42.5 84q-34 58 -35 112q0 7 1 14q5 60 42 126q4 8 9 15.5t9 17.5q-23 -25 -52.5 -43.5t-49.5 -18.5q-100 0 -100 131 q0 43 16 94.5t46 95.5t70 72.5t89 28.5q72 0 110.5 5t61.5 26q3 2 5 2l7 -3q4 -3 4 -7q0 -3 -2 -6q-16 -25 -41 -44q-22 -18 -54 -18h-7q18 -31 18 -80q0 -47 -14 -86t-32.5 -73.5t-38 -65.5t-30.5 -63q-10 -30 -11 -61q0 -37 24 -81l34 -62q15 -28 26 -53.5t16.5 -52 t5.5 -57.5q0 -49 -20.5 -93t-59.5 -78t-94.5 -53.5t-124.5 -19.5q-72 0 -129.5 20.5t-97.5 54.5t-60 78t-20 91zM129 270q0 -59 19.5 -85.5t58.5 -26.5q23 0 49.5 14t42.5 39q12 29 20.5 59.5t8.5 61.5q0 59 -19.5 93t-62.5 34q-49 0 -83 -49.5t-34 -139.5z" />
<glyph unicode="h" horiz-adv-x="598" d="M53 18q92 352 207 635t241 481.5t257 306t254 107.5q45 0 74.5 -17.5t40.5 -43.5q8 -18 8 -40q0 -10 -1 -20q-5 -33 -30 -63q-4 -6 -10.5 -4t-6.5 10q2 8 2 16q0 32 -26 62q-33 37 -105 37q-96 0 -196 -76t-200.5 -232.5t-198 -394t-187.5 -563.5q33 63 76 119.5t88 97.5 t91 64.5t89 23.5q25 0 37 -12t12 -29q0 -27 -18 -59q-43 -76 -70.5 -156t-27.5 -145q0 -29 7 -47.5t23 -18.5q20 0 44 21.5t42 48.5q6 4 12.5 -1t4.5 -13q-12 -18 -30.5 -38t-40 -37.5t-44 -27.5t-41.5 -10q-51 0 -51 86q0 74 24.5 161t59.5 154q12 20 12 35q0 18 -22 19 q-37 0 -80 -29t-88 -84t-86 -134t-74 -177q-4 -14 -21.5 -22.5t-33.5 -8.5q-18 0 -18 11q0 3 1 7z" />
<glyph unicode="i" horiz-adv-x="305" d="M70 68q0 39 13 93t33.5 109.5t46 106.5t50.5 88l-56 -42q-34 -26 -51 -42q-6 -4 -11 3t-1 13q29 29 78 66t98 61q16 0 17 -18q-27 -47 -52.5 -102.5t-45 -109.5t-32 -104.5t-12.5 -83.5q0 -43 29 -43q23 0 44.5 19.5t49.5 52.5q4 4 10.5 -2t2.5 -14q-37 -45 -79 -82 t-79 -37q-53 0 -53 68zM270 647q0 12 6 21q53 74 150 157q2 1 3 1l9 -4q4 -3 4 -6q0 -2 -2 -3q-43 -39 -82 -93t-67 -108q-3 -3 -7 -3q-3 0 -4 2q-5 5 -7.5 14.5t-2.5 21.5z" />
<glyph unicode="j" horiz-adv-x="278" d="M-604 -301q4 4 10 5t8 -7q-6 -31 -1 -57.5t23.5 -48t50.5 -34t81 -12.5q82 0 160.5 40t155.5 141.5t148.5 277.5t139.5 449l-44 -33q-22 -16 -40 -37q-8 -2 -11 4t-1 12q29 29 77 65t95 58q20 0 16 -18q-72 -285 -159 -477.5t-185 -310t-203.5 -168t-214.5 -50.5 q-72 0 -100 56q-16 31 -16 72q0 33 10 73zM253 624q-3 9 -3 16q0 13 8 24q29 41 64.5 78.5t83.5 78.5q3 2 5 2l7 -3q4 -3 3 -6q0 -2 -1 -3q-43 -39 -81 -93t-67 -108q-4 -3 -7 -3q-7 1 -12 17z" />
<glyph unicode="k" horiz-adv-x="530" d="M53 18q63 342 173 624t241 483.5t270.5 312t261.5 110.5q45 0 75 -17.5t41 -43.5q8 -18 8 -40q0 -10 -2 -20q-5 -33 -29 -65q-14 -10 -19 6q3 11 3 21q0 30 -22 59q-30 39 -102 39q-90 0 -191.5 -67.5t-203.5 -209t-197.5 -359.5t-171.5 -519q45 88 104.5 140t141.5 52 q35 0 56.5 -24.5t21.5 -55.5q0 -66 -62.5 -114.5t-154.5 -61.5q23 -109 57.5 -167t85.5 -58q23 0 42.5 10t41.5 39q6 4 10.5 -1t2.5 -11q-29 -37 -62 -58.5t-78 -21.5q-66 0 -104.5 69.5t-63.5 202.5q-2 16 11 21q20 -4 39 -5l34 4q37 7 66 23.5t46 43t17 59.5q0 51 -51 51 q-70 0 -131 -68.5t-92 -201.5l-18 -77l-15 -71q-4 -16 -8 -24.5t-19 -14.5q-25 -12 -43 -12q-12 0 -11 10q-1 3 1 8z" />
<glyph unicode="l" horiz-adv-x="274" d="M61 80q0 57 20.5 148t57.5 204t89.5 237t113.5 244.5t130 231t141.5 194.5t146.5 133.5t145 49.5q53 0 69 -49q5 -17 5 -36q0 -33 -18 -69q-4 -4 -10.5 0t-8.5 10q4 25 -17.5 41.5t-66.5 16.5q-88 0 -174 -74t-166 -191.5t-148.5 -263t-118.5 -290t-79 -272.5t-29 -208 q0 -61 35 -61q25 0 48.5 20.5t54.5 61.5q6 4 11 -1t3 -14q-41 -63 -90 -103t-84 -40q-27 0 -43.5 21.5t-16.5 58.5z" />
<glyph unicode="m" horiz-adv-x="845" d="M53 18l35 100l37 109q18 55 33.5 108.5t25.5 100.5q10 37 -10 37q-16 0 -38.5 -22.5t-45.5 -53.5q-6 -4 -12 1t-2 12q31 43 68.5 78.5t76.5 35.5q27 0 34 -20.5t1 -48.5l-19 -83q-9 -38 -24 -77q53 102 117.5 165.5t128.5 63.5q25 0 40 -18.5t15 -50.5q0 -43 -8 -86 t-25 -88q61 117 132 180t141 63q23 0 37 -16t14 -43q0 -37 -15.5 -81t-34 -91t-33.5 -93t-15 -87q0 -51 30 -52q33 0 90 68q4 4 10 -2q3 -3 2 -7q0 -3 -1 -7q-12 -16 -31 -36t-38 -37t-41.5 -28.5t-43.5 -11.5q-47 0 -47 78q0 49 14.5 99t31.5 96l32 87q14 41 14 70 q0 43 -31 43t-67.5 -30.5t-76.5 -88t-80 -140.5t-77 -187q-4 -12 -21.5 -19.5t-33.5 -7.5q-25 0 -18 18q12 37 33.5 92.5t41 114t33.5 109.5t14 80q0 57 -34 57q-53 0 -135 -114.5t-156 -329.5q-4 -12 -18.5 -19.5t-30.5 -7.5q-10 0 -17 4q-4 2 -3 7q-1 3 1 7z" />
<glyph unicode="n" horiz-adv-x="595" d="M45 18q35 88 73 199t66 219q8 39 -14 39q-20 0 -40.5 -20.5t-43.5 -53.5q-4 -4 -9 2.5t-3 12.5q23 35 61.5 71.5t83.5 36.5q39 0 39 -40q0 -13 -4 -29q-8 -45 -22.5 -95.5t-30.5 -99.5q29 55 67.5 104.5t80.5 84t84 55t79 20.5q25 0 38 -12t13 -29q0 -27 -12 -53 q-43 -78 -72.5 -163t-29.5 -156q0 -51 32 -52q43 0 97 72q6 4 12 0t4 -12q-35 -47 -77 -83t-79 -36q-63 0 -63 82q0 70 24.5 155t67.5 171q8 14 8 28q0 23 -20 23q-76 0 -167 -104.5t-169 -327.5q-4 -12 -22.5 -19.5t-35.5 -7.5q-18 0 -17 11q0 3 1 7z" />
<glyph unicode="o" horiz-adv-x="460" d="M61 150q0 57 22.5 122.5t60.5 122t86.5 93t101.5 36.5q55 0 81.5 -36.5t26.5 -96.5q0 -70 -26.5 -139.5t-67.5 -125.5t-89 -91t-89 -35q-49 0 -78 39t-29 111zM127 193q0 -129 82 -130q31 0 60.5 21.5t52 57.5t36 83t13.5 99q0 61 -20.5 97t-67.5 36q-31 0 -59.5 -21.5 t-50 -57.5t-34 -84t-12.5 -101z" />
<glyph unicode="p" horiz-adv-x="534" d="M-70 -469q0 104 33 241.5t86 284.5q-4 6 -7 13.5t-5 15.5t31 18q27 74 57 148l61 143q36 80 36 103q0 24 -25 10q-14 -8 -33 -22.5t-35 -32.5q-4 -4 -9 3t-3 11q12 14 32.5 32.5t42 36t43 30t37.5 12.5t21.5 -17.5t-6.5 -46.5q-12 -35 -31.5 -81t-42.5 -91 q57 86 112.5 133t98.5 47q41 0 65.5 -36.5t24.5 -94.5q0 -80 -27.5 -150.5t-76 -125t-114 -86t-142.5 -31.5q-35 0 -58 14q-35 -102 -63.5 -218t-28.5 -216q0 -40 37 -40q5 0 10 1q31 6 62 25q6 2 7 -7.5t-3 -15.5q-25 -14 -68 -28.5t-82 -14.5q-16 0 -26.5 7.5t-10.5 25.5z M123 88q10 -23 29.5 -36t52.5 -13q51 0 95 22.5t76 62.5t49 94t17 120q0 49 -17 81t-54 32q-47 0 -112.5 -84t-121.5 -238q-4 -10 -7 -20.5t-7 -20.5z" />
<glyph unicode="q" horiz-adv-x="550" d="M51 125q0 76 31 147.5t83 127t121.5 89t149.5 33.5q55 0 96 -37q23 18 41.5 20.5t16.5 -7.5q-68 -96 -123 -211t-98 -234t-71 -232.5t-38 -207.5q-4 -35 4 -52.5t33 -17.5q27 0 61 13q6 2 5 -8.5t-5 -14.5q-37 -14 -81 -23.5t-68 -9.5q-38 0 -38 56q0 10 1 22 q8 55 27.5 137t47 171t59.5 174t67 147q-27 -35 -58.5 -70t-64.5 -63.5t-63.5 -48t-55.5 -25.5q-37 0 -58.5 29.5t-21.5 95.5zM127 141q0 -72 49 -71q20 0 53 24.5t68 59t64.5 71.5t44.5 64l41 79l36 62q-2 23 -22.5 41t-54.5 18q-59 0 -109.5 -27.5t-88.5 -74.5 t-59.5 -110.5t-21.5 -135.5z" />
<glyph unicode="r" horiz-adv-x="399" d="M63 422q31 39 69 70.5t71 31.5q45 0 45 -57q0 -31 -6 -72t-17 -82q41 98 90.5 154.5t106.5 56.5q23 0 41 -12t18 -35q0 -16 -12 -41.5t-25 -38.5q-12 -8 -12 6q0 35 -47 35q-72 0 -129 -107.5t-109 -297.5q-4 -20 -27.5 -26.5t-39.5 -6.5q-23 0 -10 23q18 43 34 93 l32 101q15 51 25.5 100.5t16.5 90.5q2 14 2 24q0 37 -22 37q-16 0 -38 -18.5t-40 -42.5q-8 -4 -14 1q-4 3 -4 7q-1 3 1 6z" />
<glyph unicode="s" horiz-adv-x="385" d="M-10 70q0 18 22.5 55t50.5 59q6 4 11.5 -2t1.5 -12q-16 -16 -24.5 -37.5t-4.5 -38.5q6 -35 31.5 -52t60.5 -17q53 0 83 28.5t30 73.5q0 39 -18.5 72.5t-40 65.5t-39 63.5t-17.5 68.5q0 53 40 90t108 37q41 0 68.5 -13t27.5 -30q0 -23 -9.5 -51.5t-19.5 -46.5 q-4 -4 -11 -1t-5 9q6 14 8 32.5t-2 33.5q-10 41 -57 41q-35 0 -56.5 -20.5t-21.5 -61.5q0 -33 17.5 -62.5t39 -59.5t38.5 -63.5t17 -74.5q0 -66 -46 -111t-138 -45q-63 0 -104 22.5t-41 47.5z" />
<glyph unicode="t" horiz-adv-x="350" d="M85 469q5 8 18.5 16.5t32 15.5t34.5 7q10 2 17 2h16l57 122q29 58 57 107q12 12 27.5 21.5t30.5 12.5q11 2 18 2h4q8 -1 6 -7q-35 -53 -68.5 -118.5t-64.5 -135.5q37 0 74 1t78 1q9 -3 8 -10q0 -11 -18 -12l-73 -4.5t-81 -6.5q-41 -102 -67.5 -196t-26.5 -156 q0 -70 53 -70t117 95q6 4 12 -1t4 -16q-18 -29 -41.5 -54.5t-48 -43.5t-47.5 -29.5t-37 -11.5q-45 0 -66.5 27.5t-21.5 66.5q0 68 28.5 170.5t71.5 210.5l-51 -8l-47 -8q-7 1 -7 5q0 2 2 5z" />
<glyph unicode="u" horiz-adv-x="612" d="M66 92q0 33 9 77t24.5 93t38 98.5t50.5 92.5l-47 -36q-25 -19 -41 -36q-6 -4 -10 3t-2 13q14 14 36.5 33t48.5 37l53.5 35.5t52.5 29.5q2 1 3 1q6 0 10 -5q5 -6 3 -14q-66 -84 -105.5 -185.5t-39.5 -193.5q0 -59 34 -59q27 0 67 35.5t83 94t87 132.5t81 149 q6 14 23.5 25.5t37.5 11.5q27 0 19 -16q-29 -53 -51.5 -99.5t-37 -91.5t-21.5 -92t-7 -102q0 -66 37 -66q16 0 36.5 17.5t41.5 46.5q6 4 12 0q4 -2 4 -7q0 -3 -2 -8q-29 -43 -67 -74.5t-72 -31.5q-27 0 -45.5 26.5t-18.5 71.5q0 49 9.5 105.5t29.5 113.5q-39 -76 -82 -134 t-83 -99t-74.5 -62.5t-57.5 -21.5q-27 0 -47 25.5t-20 66.5z" />
<glyph unicode="v" horiz-adv-x="555" d="M66 422q-3 3 -3.5 6.5t3.5 7.5q47 47 82.5 67.5t66.5 20.5q25 0 34 -18.5t9 -46.5q0 -39 -8 -92.5t-21.5 -111.5t-29.5 -115l-31 -101q57 14 114.5 53t102.5 90t72.5 111.5t27.5 122.5q0 53 -34 53q-29 0 -52 -33q-6 -4 -10 2t-2 13q16 27 46 50t59 23q23 0 38 -20.5 t15 -61.5q0 -59 -25.5 -118.5t-71 -114.5t-106.5 -102.5t-133 -77.5q-29 -12 -57.5 -20.5t-51.5 -8.5q-25 0 -12 27q35 86 59.5 187t32.5 181q1 13 1 23q0 49 -23 49q-29 0 -76 -47q-10 -4 -16 2z" />
<glyph unicode="w" horiz-adv-x="755" d="M59 466q12 13 28.5 25.5t35 21.5t35.5 9q39 0 57 -50t18 -169q0 -53 -5 -96t-11 -76q41 70 78 122l70 95q12 16 21 38t20 60q2 8 14 17.5t24.5 15.5t21.5 8t9 -4q-31 -68 -48 -156.5t-17 -164.5q0 -98 69 -99q35 0 72 23t66.5 60.5t49 88t19.5 105.5q0 80 -32 102 q-14 10 -28 10q-19 0 -38 -16q-16 -4 -13 15q6 10 16.5 22t24 23.5t25.5 18.5t21 7q29 0 48 -33.5t19 -99.5q0 -78 -29.5 -148.5t-74.5 -124t-98.5 -85t-98.5 -31.5q-37 0 -58.5 28.5t-21.5 86.5q0 25 2 53.5t6 58t9.5 56t11.5 47.5q-43 -53 -88 -127l-90 -150 q-16 -33 -27.5 -43t-28.5 -10q-16 0 -12 23q14 49 23.5 121.5t9.5 141t-9.5 120t-33.5 61.5q-12 4 -31.5 -6t-30.5 -33q-4 -4 -11 1q-6 4 -5 10q-1 9 16 27z" />
<glyph unicode="x" horiz-adv-x="538" d="M-14 41q0 25 8 55.5t26 65.5q4 4 9.5 0t5.5 -12q-16 -37 -6 -60.5t32 -23.5q35 0 75 35.5t87 119.5q-14 51 -18 96l-7 77q-3 32 -6.5 50.5t-13.5 18.5q-14 0 -30.5 -23.5t-26.5 -50.5q-4 -4 -11.5 -2t-5.5 8q4 18 17.5 40t31 41.5t37 32.5t35.5 13q14 0 21.5 -18.5 t10.5 -48t5 -67.5t8 -79q49 92 111.5 152.5t120.5 60.5q29 0 44 -15t15 -38q0 -18 -11 -46t-24 -50q-6 -4 -11 -1t-5 9q20 35 12 59.5t-41 24.5q-53 0 -101 -47t-101 -146q25 -98 62.5 -157.5t76.5 -59.5q27 0 50.5 22.5t43.5 53.5q6 4 12 0t4 -12q-12 -23 -30.5 -44.5 t-39 -38t-41 -27.5t-36.5 -11q-37 0 -78 51t-70 139q-53 -92 -107 -141t-108 -49q-32 0 -32 43z" />
<glyph unicode="y" horiz-adv-x="573" d="M-362 -311q0 37 19 77.5t60 71.5q6 4 11.5 -4t1.5 -12q-33 -39 -33 -88q0 -86 49 -139.5t150 -53.5q72 0 132 22.5t114.5 80t104.5 154t103 241.5l44 125l44 119q-78 -123 -163 -201t-150 -84q-27 0 -39 24.5t-12 67.5q0 37 8 81t23.5 91t39 95.5t52.5 93.5l-47 -36 q-25 -19 -41 -36q-6 -4 -11.5 3t-1.5 13q29 29 78 66t96 61q20 0 17 -18q-31 -41 -56.5 -91.5t-44 -100.5t-29 -99t-10.5 -88q0 -57 39 -57q33 0 79 44t92 106.5t84 133t57 123.5q2 6 10 13.5t19.5 15.5t22.5 13t17 5q15 0 15 -9q0 -33 -15.5 -78t-40.5 -98.5t-32 -75.5 l-93 -249q-55 -143 -117.5 -240.5t-131 -157.5t-142 -87t-151.5 -27q-109 0 -165 54.5t-56 134.5z" />
<glyph unicode="z" horiz-adv-x="487" d="M-16 8q-3 5 -3 10.5t3 10.5l99 98l110 109l107 106l95 94q-45 10 -100 16.5t-94 6.5q-59 0 -82 -66q-4 -6 -12.5 -2t-8.5 10q16 45 51 83t89 38q47 0 90 -9t71 -17q23 -4 39.5 1t32.5 19q6 6 18 6q25 0 21 -16l-216 -210l-196 -196q47 -16 97.5 -27.5t101.5 -11.5 q53 0 87 30t56 89q6 4 14.5 0t4.5 -12q-29 -78 -75 -124t-110 -46q-43 0 -86 9t-90 26q-25 10 -46 2t-52 -37q-10 0 -16 10z" />
<glyph unicode="{" horiz-adv-x="595" d="M180 33q12 55 29 98l33 82l32 78q16 39 29 88q8 31 2 56.5t-19.5 45t-35 31.5t-43.5 16q-12 10 -4 24.5t43 25.5q66 16 97.5 53t47.5 108q20 82 21.5 145.5t15.5 131.5q29 137 109.5 197.5t238.5 60.5q16 -4 14 -16.5t-22 -12.5q-117 0 -176.5 -49t-83.5 -160 q-10 -43 -14.5 -76.5t-7.5 -66.5t-7 -66.5t-14 -76.5q-16 -61 -58 -112.5t-106 -80.5q51 -14 71.5 -60t8.5 -104q-12 -53 -29 -95l-33 -83l-31 -82q-15 -41 -26 -90q-20 -104 16.5 -156.5t141.5 -52.5q10 -4 8 -15.5t-20 -15.5q-147 0 -199 62t-29 168z" />
<glyph unicode="|" horiz-adv-x="331" d="M164 -498v1819h45v-1819h-45z" />
<glyph unicode="}" horiz-adv-x="583" d="M0 -180.5q2 12.5 23 14.5q117 0 176 48t84 161q10 43 14 77t7 66.5t7 65.5t15 76q16 61 59 112.5t104 79.5q-51 14 -71.5 61.5t-7.5 104.5q12 51 28 94l33 83l32 81q15 41 25 90q20 104 -16.5 156.5t-140.5 52.5q-10 4 -8 15.5t20 15.5q147 0 198.5 -61.5t28.5 -165.5 q-12 -57 -28.5 -100.5t-32.5 -81.5l-33 -77q-16 -39 -29 -88q-8 -31 -1.5 -56.5t19.5 -45.5t34.5 -32.5t44.5 -16.5q12 -10 4 -24.5t-43 -22.5q-66 -16 -96.5 -54t-49.5 -110q-20 -82 -21 -145.5t-16 -129.5q-29 -139 -109.5 -199.5t-238.5 -60.5q-16 4 -14 16.5z" />
<glyph unicode="~" horiz-adv-x="784" d="M106 285q39 51 90.5 92t110.5 41q37 0 66.5 -12.5l58.5 -25.5t60.5 -25.5t74.5 -12.5q78 0 152 84q10 4 18 -2t4 -16q-47 -57 -103 -92t-114 -35q-45 0 -77.5 12t-60.5 25l-54 26q-27 12 -60 12q-47 0 -80.5 -24.5t-68.5 -65.5q-10 -6 -15.5 1.5t-1.5 17.5z" />
<glyph unicode="&#xa1;" horiz-adv-x="387" d="M-156 -553l93 194l106 228l100 218l74 165q16 18 27.5 13t5.5 -27q-31 -68 -71 -166.5l-78 -201.5t-69.5 -200.5t-49.5 -161.5q-12 -18 -40 -41.5t-54.5 -38t-42 -13.5t-1.5 32zM258 418q0 16 9 34.5t22.5 34t30 25.5t30.5 10q27 0 27 -45q0 -12 -9.5 -26.5t-22.5 -28.5 t-30.5 -23.5t-35.5 -9.5q-21 0 -21 29z" />
<glyph unicode="&#xa2;" horiz-adv-x="397" d="M8 -135l53 133l50 119q-35 10 -55.5 40.5t-20.5 78.5q0 76 25.5 147.5t68.5 127.5t96.5 91t108.5 35l28 68q14 35 31 69q10 12 22.5 10t10.5 -18l-31 -67l-28 -64q31 -10 51 -31.5t20 -46.5q0 -10 -7 -24.5t-16 -29t-19.5 -25.5t-18.5 -15q-12 0 -12 10q12 29 4.5 57.5 t-31.5 42.5l-89 -201l-83 -196h14q41 0 71 15.5t62 54.5q6 4 12.5 -2t2.5 -15q-43 -57 -92.5 -85.5t-94.5 -28.5l-49 -120l-49 -126q-12 -20 -24.5 -20t-10.5 16zM111 276q0 -63 28 -88l82 191l88 205q-4 2 -14 2q-37 0 -71 -22.5t-59.5 -63.5t-39.5 -98.5t-14 -125.5z" />
<glyph unicode="&#xa3;" horiz-adv-x="704" d="M12 31q0 35 47 69.5t113 34.5q18 0 34.5 -2t33.5 -6q14 29 28.5 72t30.5 102l-58 -8q-30 -4 -63 -8q-10 2 -5 10t18.5 16t32 14.5t34.5 8.5q14 2 25.5 2t23.5 2q18 59 47 114.5t68 97.5t84 66.5t94 24.5q53 0 71.5 -52t-3.5 -116q-6 -6 -13.5 -4t-9.5 8q-4 35 -29.5 63.5 t-76.5 28.5q-31 0 -53.5 -9t-42 -34.5t-36 -70.5t-34.5 -115q39 0 84 -1t104 -1q10 -4 8 -12.5t-18 -10.5q-100 0 -186 -6q-33 -125 -86 -196l99 -39q52 -20 132 -21q39 0 67.5 12.5t49.5 30.5q8 4 14 0t2 -12q-45 -45 -86 -70.5t-100 -25.5q-78 0 -129 23l-99 46 q-35 -31 -75.5 -44t-83.5 -13q-58 0 -58 31zM63 68q0 -33 52 -33q25 0 46 7t40 28q-23 10 -45.5 16t-51.5 6q-41 1 -41 -24z" />
<glyph unicode="&#xa4;" horiz-adv-x="704" d="M35 27l63 59l76 70q-37 49 -37 127q0 59 28 114.5t77 94.5l-29 53l-29 51q-6 16 2.5 33.5t22.5 11.5l34 -61l33 -66q59 35 136 35q70 0 120 -41l78 69l70 62q8 4 18.5 -5t1.5 -20q-29 -29 -65 -61l-78 -72q33 -45 33 -108q0 -68 -29 -125.5t-80 -93.5l29.5 -55.5 t30.5 -51.5q4 -18 -4.5 -35.5t-20.5 -9.5l-35 63q-18 32 -35 66q-61 -33 -133 -33q-68 0 -112 33l-78 -68l-68 -61q-10 -4 -19 5.5t-1 19.5zM178 297q0 -72 37 -117t127 -45q41 0 78 17.5t64.5 46t44 67.5t16.5 82q0 76 -41 120t-113 44q-47 0 -87 -17.5t-67.5 -47 t-43 -68.5t-15.5 -82z" />
<glyph unicode="&#xa5;" horiz-adv-x="632" d="M53 209q6 8 19.5 16t32 14.5t34.5 8.5q23 4 43.5 4t38.5 2q14 33 17 57q-33 -4 -68 -9t-76 -13q-10 2 -5 10t19.5 16.5t33 15.5t34.5 9t32.5 3t33.5 1q8 106 -20.5 176t-82.5 70q-27 0 -45 -21q-8 -4 -13 1t-1 14q16 16 47 36.5t55 20.5q25 0 47.5 -17.5t40 -53t24.5 -92 t-1 -132.5q86 160 164 227.5t149 67.5q33 0 49.5 -25.5t18.5 -60.5q-2 -10 -7 -12t-10 2q-23 41 -90 41q-33 0 -66.5 -19.5t-65.5 -52.5t-60.5 -77t-52.5 -91q29 0 62.5 -1t76.5 -1q10 -4 8 -11t-18 -11q-41 0 -76 -1.5t-68 -3.5q-6 -16 -13 -31.5t-13 -31.5h63q35 0 80 -2 q10 -4 8 -11.5t-18 -11.5h-76q-35 0 -68 -4q-14 -43 -22 -82t-8 -67q0 -45 32 -45q29 0 45 8q8 0 10.5 -7t-1.5 -12q-14 -6 -54.5 -13t-64.5 -7q-33 0 -33 55q0 47 11.5 88t25.5 78q-35 -4 -73 -9t-81 -13q-10 2 -4 10z" />
<glyph unicode="&#xa6;" horiz-adv-x="331" d="M166 182h43v-680h-43v680zM166 643v678h43v-678h-43z" />
<glyph unicode="&#xa7;" horiz-adv-x="808" d="M-104 -297q0 47 29.5 103.5t86.5 109.5q8 4 13.5 -3t1.5 -17q-29 -31 -41.5 -63t-12.5 -73t17.5 -76.5t48.5 -62.5t74 -43t96 -16q109 0 163 60.5t54 166.5q0 113 -20.5 207t-46 186t-46 187.5t-20.5 210.5q0 104 33.5 192t97 151.5t156 99.5t208.5 36q86 0 135.5 -49 t49.5 -111q0 -37 -24.5 -82t-51.5 -80q-6 -6 -12 0t-4 17q10 16 19 43.5t9 56.5q0 59 -44 102t-130 43q-104 0 -161.5 -55t-57.5 -160q0 -109 20.5 -204t46 -188t46 -193.5t20.5 -216.5q0 -104 -33.5 -192.5t-97 -152t-156 -99.5t-208.5 -36q-59 0 -106.5 16.5t-81.5 44 t-52 64.5t-18 76zM365 -426q88 29 149 122t61 228q0 117 -18 220.5t-41.5 198.5t-42 186.5t-18.5 187.5q0 82 31.5 153.5t91.5 118.5q-86 -25 -148.5 -113t-62.5 -221q0 -121 19.5 -222t43 -195.5t43 -185.5t19.5 -193q0 -100 -36 -171t-91 -114z" />
<glyph unicode="&#xa8;" horiz-adv-x="356" d="M41 692q0 23 23.5 53.5t58.5 30.5q20 0 20 -28q0 -31 -23.5 -63t-51.5 -32q-27 0 -27 39zM215 692q0 23 22.5 53.5t57.5 30.5q20 0 20 -28q0 -31 -22.5 -63t-50.5 -32q-27 0 -27 39z" />
<glyph unicode="&#xa9;" horiz-adv-x="677" d="M123 453q0 55 22.5 108t63.5 95t96 67t123 25q86 0 142.5 -54.5t56.5 -142.5q0 -61 -23.5 -116.5t-64.5 -97.5t-97.5 -65.5t-124.5 -23.5q-98 0 -146 56.5t-48 148.5zM158 465q0 -82 43 -135.5t147 -53.5q47 0 91 20.5t77 54.5t52.5 79t19.5 96q0 88 -47 139.5t-133 51.5 q-55 0 -101.5 -20.5t-79 -56.5t-51 -81t-18.5 -94zM236 459q0 33 13 65.5t36.5 59t56.5 42t74 15.5t64.5 -11.5t23.5 -23.5t-8.5 -36.5t-18.5 -37.5q-4 -4 -9 0.5t-5 8.5q10 25 2 39q-18 29 -66 28q-63 0 -90.5 -35.5t-27.5 -95.5q0 -102 90 -102q33 0 53 13t31 34q4 4 9 -1 t5 -9q-12 -27 -45 -46.5t-74 -19.5q-57 0 -85.5 33t-28.5 80z" />
<glyph unicode="&#xaa;" horiz-adv-x="462" d="M113 432q0 37 15 75t41 67.5t60.5 48t71.5 18.5q39 0 64 -18q16 16 34 16q10 0 11 -6q-27 -33 -45.5 -70t-28.5 -70.5t-11 -60t5 -37.5q4 -6 16 -3t37 34q4 4 8 0t2 -12q-25 -33 -47 -48.5t-39 -15.5q-23 0 -25.5 38t11.5 87q-31 -49 -64.5 -84t-66.5 -41q-23 0 -36 20.5 t-13 61.5zM158 449q0 -25 9 -37.5t19 -12.5q12 0 31 14.5t38 40t38.5 58.5t34.5 70q-4 14 -18.5 20t-33.5 6q-45 0 -81.5 -43.5t-36.5 -115.5z" />
<glyph unicode="&#xab;" horiz-adv-x="591" d="M47 213q-18 16 4 35q78 70 167 139.5t173 126.5q14 4 18.5 -10.5t-12.5 -26.5q-29 -18 -68 -49l-81 -62l-78 -63q-37 -31 -57 -51q43 -35 90 -84t76 -90q2 -8 -0.5 -22.5t-8.5 -27t-15 -19.5t-22 -3q-39 59 -91 115.5t-95 91.5zM252 213q-18 16 4 35q78 70 167 139.5 t173 126.5q14 4 18 -10.5t-12 -26.5q-29 -18 -68 -49l-81 -62l-78 -63q-37 -31 -58 -51q43 -35 90.5 -84t75.5 -90q2 -8 0 -22.5t-8 -27t-15 -19.5t-22 -3q-39 59 -91 115.5t-95 91.5zM252 213q-18 16 4 35q78 70 167 139.5t173 126.5q14 4 18 -10.5t-12 -26.5 q-29 -18 -68 -49l-81 -62l-78 -63q-37 -31 -58 -51q43 -35 90.5 -84t75.5 -90q2 -8 0 -22.5t-8 -27t-15 -19.5t-22 -3q-39 59 -91 115.5t-95 91.5z" />
<glyph unicode="&#xac;" horiz-adv-x="542" d="M33 459q4 10 24 14q33 2 90 3l119 2l119 2q57 1 92 1q16 -8 10 -28q-6 -12 -15 -35l-19 -50l-22 -57q-11 -29 -19 -53q-6 -10 -17.5 -15t-24 -5t-21.5 4t-7 14l16 46l21 56l19 54q9 25 14 37h-89q-52 0 -105.5 -1.5t-101.5 -2.5t-75 -1q-12 5 -8 15z" />
<glyph unicode="&#xad;" horiz-adv-x="501" d="M80 283q-14 4 0 21.5t41 23.5q27 2 68.5 6t89 7t93.5 5t81 2q8 -2 6 -10t-9.5 -17.5t-19.5 -17.5t-27 -10q-37 0 -82 -1t-89 -3t-84.5 -3t-67.5 -3z" />
<glyph unicode="&#xae;" horiz-adv-x="677" d="M123 453q0 55 22.5 108t63.5 95t96 67t123 25q86 0 142.5 -54.5t56.5 -142.5q0 -61 -23.5 -116.5t-64.5 -97.5t-97.5 -65.5t-122.5 -23.5q-100 0 -148 56.5t-48 148.5zM160 465q0 -82 43 -135.5t147 -53.5q47 0 90 20.5t76 54.5t52.5 79t19.5 96q0 88 -47 139.5 t-133 51.5q-55 0 -101.5 -20.5t-79 -56.5t-50 -81t-17.5 -94zM231 354q16 61 40 125t53 113q6 10 20 18l-44 -8q-22 -4 -44 -14q-8 0 -2 10t16 14q23 10 54.5 19.5t62.5 9.5q45 0 67.5 -20.5t22.5 -51.5q0 -35 -26.5 -59.5t-69.5 -32.5q10 -53 22.5 -75.5t36.5 -22.5 q10 0 25 10q14 4 10 -14q-10 -10 -25.5 -19.5t-33.5 -9.5q-35 0 -48.5 37t-25.5 96q0 8 4 10q4 4 10 7.5t11 7.5q4 2 9 0t9 -2q16 -4 33 8q23 14 22 47q0 29 -21.5 41t-56.5 12q-10 -20 -22 -49l-24.5 -61.5t-22.5 -67.5t-17 -65q-4 -8 -16 -14.5t-22 -6.5q-7 0 -7 8z" />
<glyph unicode="&#xb0;" horiz-adv-x="212" d="M164 678q0 43 32.5 78t84.5 35q33 0 54 -20.5t21 -53.5q0 -49 -32.5 -83t-83.5 -34q-39 0 -57.5 21.5t-18.5 56.5zM193 686q0 -27 13 -43t46 -16q29 0 51.5 22.5t22.5 55.5q0 59 -56 59q-35 0 -56 -23.5t-21 -54.5z" />
<glyph unicode="&#xb1;" horiz-adv-x="616" d="M20.5 22.5q10.5 18.5 61.5 24.5q31 0 76 1t95 1t103.5 -1t102.5 -3q16 -2 3 -19.5t-38 -21.5q-92 2 -197.5 1t-203.5 -5q-13 4 -2.5 22.5zM112.5 294.5q10.5 18.5 61.5 24.5h133l33 89l33 90q2 8 12 15t20.5 10t18.5 1t8 -10q-23 -55 -39 -102l-33 -93h97q49 0 94 -2 q16 -4 3 -20t-38 -21h-172l-26 -73q-13 -37 -25 -76q-10 -27 -32.5 -33t-22.5 10q27 92 55 172q-45 -2 -90 -2t-88 -2q-13 4 -2.5 22.5z" />
<glyph unicode="&#xb2;" horiz-adv-x="440" d="M94 309q-4 8 4 15l95 60q43 28 75.5 52.5t51 51t18.5 61.5q0 23 -12.5 38t-46.5 15q-33 0 -54.5 -24.5t-27.5 -53.5q-4 -4 -10.5 -2t-6.5 13q8 39 44 72.5t89 33.5q37 0 56.5 -22.5t19.5 -51.5q0 -31 -12 -56.5t-36 -49t-59 -46.5l-85 -55q45 -16 114 -16q41 0 56 23 q4 4 9 1t1 -12q-16 -25 -38 -40t-54 -15q-31 0 -54 6l-41 11q-18 5 -32.5 7.5t-28.5 -6.5q-18 -12 -25 -18q-6 0 -10 8z" />
<glyph unicode="&#xb3;" horiz-adv-x="389" d="M96 375q4 12 13 4q12 -49 94 -49q39 0 61.5 21.5t22.5 58.5q0 63 -58 63q-14 0 -24 -4l-21 -8q-6 -2 -8 6t2 12q66 23 88.5 46.5t22.5 47.5q0 41 -39 41q-25 0 -43.5 -13t-28.5 -34q-4 -4 -10 1t-4 12q14 23 40.5 42t67.5 19q31 0 47.5 -16.5t16.5 -38.5q0 -55 -82 -90 q41 10 62.5 -8.5t21.5 -51.5q0 -57 -50 -96t-122 -39q-76 0 -70 74z" />
<glyph unicode="&#xb4;" horiz-adv-x="321" d="M41 650q0 7 8 16q27 16 70 47.5t71 66.5q10 6 38 -2t46 -16q14 -8 2 -21q-18 -12 -46.5 -26.5t-59.5 -27.5t-62.5 -24.5t-58.5 -19.5q-8 0 -8 7z" />
<glyph unicode="&#xb5;" horiz-adv-x="663" d="M-39 -291q18 90 47 189.5t67 199t83 194.5t92 175q16 16 38.5 34.5t39.5 20.5q8 2 13 -4t1 -14q-59 -86 -100 -181.5t-41 -189.5q0 -59 37 -59q27 0 66.5 35.5t82.5 94t87 132.5t81 149q6 16 23.5 26.5t37.5 10.5q27 0 19 -16q-29 -53 -51.5 -99.5t-37 -91.5t-21.5 -91 t-7 -101q0 -66 37 -66q33 0 68 45q6 4 12 0t4 -12q-29 -41 -68 -66.5t-63 -25.5q-27 0 -46.5 27.5t-19.5 72.5q0 100 41 219q-39 -76 -82 -135t-82.5 -100t-74.5 -62.5t-58 -21.5q-29 0 -34 54t18 141q-49 -123 -80 -237t-35 -212q-2 -16 -28.5 -35.5t-46.5 -19.5 q-21 0 -19 20z" />
<glyph unicode="&#x3bc;" horiz-adv-x="663" d="M-39 -291q18 90 47 189.5t67 199t83 194.5t92 175q16 16 38.5 34.5t39.5 20.5q8 2 13 -4t1 -14q-59 -86 -100 -181.5t-41 -189.5q0 -59 37 -59q27 0 66.5 35.5t82.5 94t87 132.5t81 149q6 16 23.5 26.5t37.5 10.5q27 0 19 -16q-29 -53 -51.5 -99.5t-37 -91.5t-21.5 -91 t-7 -101q0 -66 37 -66q33 0 68 45q6 4 12 0t4 -12q-29 -41 -68 -66.5t-63 -25.5q-27 0 -46.5 27.5t-19.5 72.5q0 100 41 219q-39 -76 -82 -135t-82.5 -100t-74.5 -62.5t-58 -21.5q-29 0 -34 54t18 141q-49 -123 -80 -237t-35 -212q-2 -16 -28.5 -35.5t-46.5 -19.5 q-21 0 -19 20z" />
<glyph unicode="&#xb6;" horiz-adv-x="802" d="M-190 -342q0 51 24.5 94t71.5 66q10 0 13 -10.5t-3 -16.5q-16 -12 -24.5 -31.5t-8.5 -52.5q0 -72 38 -117t124 -45q63 0 132 63.5t128 219.5l32 91l32 93q-78 20 -128.5 76.5t-50.5 138.5q0 94 47.5 173t135.5 135.5t213 88t280 31.5q10 -4 6 -19t-20 -20q-18 0 -36.5 -1 t-35.5 -3l-52 -189l-57 -197q-30 -97 -60.5 -186t-61.5 -159q-84 -193 -229.5 -286t-323.5 -93q-88 0 -137 45t-49 111zM160 -440q92 23 172 93.5t139 207.5q29 68 59.5 155.5t61.5 186t59.5 202l53.5 201.5q-61 -6 -119 -22l-52 -197l-57 -207q-29 -102 -58.5 -194 t-58.5 -162q-41 -94 -86.5 -159.5t-113.5 -104.5z" />
<glyph unicode="&#xb7;" horiz-adv-x="229" d="M61 291q0 12 8.5 26.5t22.5 28.5t30.5 23.5t35.5 9.5q20 0 20 -31q0 -16 -9 -33.5t-22.5 -33t-30 -25.5t-30.5 -10q-25 0 -25 45z" />
<glyph unicode="&#xb8;" horiz-adv-x="235" d="M42 -245q-1 7 3 14q53 25 68.5 53t3.5 69q-10 33 1 67t58 62q10 2 14.5 -3t2.5 -9q-25 -16 -33 -39.5t0 -44.5q16 -45 -11.5 -96t-99.5 -80q-6 0 -7 7z" />
<glyph unicode="&#xb9;" horiz-adv-x="356" d="M102 313q27 70 61 143l62 134q-55 -12 -90 -19q-4 2 -4 9.5t6 11.5q37 6 77 21.5t75 37.5q4 4 10 0t4 -10q-49 -72 -86 -161t-59 -161q-14 -20 -41 -20q-15 0 -15 14z" />
<glyph unicode="&#xba;" horiz-adv-x="364" d="M102 432q0 33 12.5 70t34 67.5t48 51t57.5 20.5q29 0 44 -19.5t15 -54.5q0 -39 -15 -77.5t-37.5 -69.5t-49.5 -50.5t-49 -19.5q-60 0 -60 82zM143 463q0 -68 43 -68q33 0 58.5 41t25.5 94q0 70 -45 70q-35 0 -58.5 -41t-23.5 -96z" />
<glyph unicode="&#xbb;" horiz-adv-x="565" d="M-41 15.5q-6 13.5 10 29.5q25 23 61 52l74 62l76 60l66 51q-23 16 -46.5 41t-47 53.5t-42.5 57.5l-34 51q-4 8 4 18.5t20.5 17.5t24.5 9t20 -4q31 -57 77 -114.5t91 -92.5q6 -6 5 -17t-9 -18q-84 -57 -174 -129.5t-158 -136.5q-12 -4 -18 9.5zM164 15.5q-6 13.5 10 29.5 q25 23 60 52l75 62l76 60l66 51q-23 16 -46.5 41t-47 53.5t-43.5 57.5l-33 51q-4 8 4 18.5t20 17.5t24.5 9t20.5 -4q31 -57 77 -114.5t91 -92.5q6 -6 5 -17t-9 -18q-84 -57 -174 -129.5t-158 -136.5q-12 -4 -18 9.5z" />
<glyph unicode="&#xbc;" horiz-adv-x="890" d="M104 -63l163 195l149 177l155 184l187 212q14 8 29.5 1.5t7.5 -20.5l-173 -196l-163 -188l-158 -187l-156 -193q-18 -14 -32.5 -7.5t-8.5 22.5zM147 215q16 43 37 91l42 96l43 95l40 85l-60.5 -14.5t-51.5 -10.5q-6 2 -7.5 9t7.5 12q47 8 96 25.5t90 45.5q8 4 14 0t4 -14 q-61 -92 -110 -207t-76 -207q-14 -23 -53 -22q-15 0 -15 16zM463 139q39 39 88 81l100 83q51 41 103.5 78t97.5 63q8 2 12 -3t0 -9l-42 -50q-19 -24 -36 -56q-23 -39 -43 -84l-41 -97q29 4 43.5 12.5t24.5 24.5q4 4 9 0t3 -10q-29 -53 -92 -59q-10 -23 -17 -46.5t-16 -46.5 q-4 -8 -18 -14t-29 -6q-10 0 -10 10q10 27 18.5 52.5t18.5 50.5q-63 4 -100 16t-54 2q-4 -2 -4 -3t-2 -3q-6 -4 -12 1t-2 13zM524 168q29 -10 57.5 -15.5t67.5 -7.5q45 111 99 203q-57 -41 -114 -87z" />
<glyph unicode="&#xbd;" horiz-adv-x="888" d="M106 -63l162 195l149 177l155 184l186 212q14 8 29.5 1.5t9.5 -20.5l-174 -196l-164 -188l-158 -187l-156 -193q-16 -14 -31.5 -7.5t-7.5 22.5zM150 215q16 43 36 91l42 96l43 95l40 85l-60.5 -14.5t-53.5 -10.5q-4 2 -6.5 9t8.5 12q47 8 95 25.5t91 45.5q6 4 12 0t6 -14 q-63 -92 -111 -207t-77 -207q-12 -23 -51 -22q-18 0 -14 16zM441 9q-3 11 5 20l129 73q61 35 108.5 69t76 68.5t28.5 75.5q0 33 -17 51.5t-58 18.5q-43 0 -70 -26.5t-37 -73.5q-4 -6 -14 -2t-8 14q10 49 54 92t114 43q47 0 71.5 -27.5t24.5 -66.5q0 -80 -75 -138.5 t-204 -125.5q29 -10 65 -17.5t83 -7.5t69 39q8 8 13.5 1t3.5 -15q-20 -33 -48 -53.5t-69 -20.5q-39 0 -67.5 7t-52 14.5t-42 9.5t-37.5 -8l-19 -14l-13 -9q-11 -2 -14 9z" />
<glyph unicode="&#xbe;" horiz-adv-x="974" d="M104 293q2 4 6.5 6t8.5 -2q10 -33 30.5 -51.5t77.5 -18.5q55 0 90 31t35 84q0 35 -17.5 56.5t-58.5 21.5q-20 0 -33.5 -5t-27.5 -14q-8 -2 -10 8.5t2 14.5q78 29 112.5 56.5t34.5 64.5q0 53 -53 53q-35 0 -56.5 -17.5t-37.5 -45.5q-6 -6 -12.5 0t-4.5 16q16 31 51 55.5 t87 24.5q41 0 61.5 -20.5t20.5 -49.5q0 -76 -105 -115q53 12 79 -12t26 -65q0 -35 -16.5 -66t-45.5 -53.5t-68.5 -36.5t-86.5 -14q-45 0 -69 23.5t-20 70.5zM188 -63l163 195l149 177l155 184l187 212q14 8 29.5 1.5t7.5 -20.5l-173 -196l-163 -188l-158 -187l-156 -193 q-18 -14 -32.5 -7.5t-8.5 22.5zM547 139q39 39 88 81l100 83q51 41 103.5 78t97.5 63q8 2 12 -3t0 -9l-42 -50q-19 -24 -36 -56q-23 -39 -43 -84l-41 -97q29 4 43.5 12.5t24.5 24.5q4 4 9 0t3 -10q-29 -53 -92 -59q-10 -23 -17 -46.5t-16 -46.5q-4 -8 -18 -14t-29 -6 q-10 0 -10 10q10 27 18.5 52.5t18.5 50.5q-63 4 -100 16t-54 2l-6 -6q-6 -4 -12 1t-2 13zM608 168q29 -10 57.5 -15.5t67.5 -7.5q45 111 98 203q-57 -41 -113 -87z" />
<glyph unicode="&#xbf;" horiz-adv-x="583" d="M-102 -356q0 86 29.5 144t75.5 100t101 72l108 56q52 27 95 56.5t64 70.5q16 31 8 59.5t-51 33.5q-14 0 -8 9t21 19t35.5 16.5t35.5 4.5q18 -4 30.5 -20.5t14.5 -40t-8.5 -51.5t-36.5 -54q-55 -59 -130 -100.5t-143.5 -84.5t-116 -97t-47.5 -140q0 -74 43 -120t121 -46 q76 0 123 42t64 101q8 10 20 0t10 -20q-14 -39 -41.5 -74t-63.5 -61.5t-79 -43t-88 -16.5q-88 0 -137 55.5t-49 129.5zM455 420q0 14 9 32.5t22.5 34t29.5 25.5t31 10q27 0 26 -43q0 -12 -9 -27.5t-22.5 -29.5t-30.5 -23.5t-36 -9.5q-10 0 -15 9.5t-5 21.5z" />
<glyph unicode="&#xc0;" d="M111.5 343q19.5 91 87.5 171q6 4 14 -1t6 -19q-49 -53 -58 -123t21.5 -133.5t104 -106.5t192.5 -43q156 0 314.5 74t300.5 207q45 41 93 91l101 107q-141 -10 -254 -24q-10 2 -4 10t19.5 17.5t31 16.5t33.5 9q25 2 81 3t128 3l261 264q144 141 335 291q-137 45 -283.5 75 t-281.5 30q-154 0 -255.5 -89.5t-125.5 -271.5q-4 -10 -11.5 -8t-9.5 12q25 201 150 307.5t323 106.5q84 0 170 -11.5t168 -28.5t157 -38.5t136 -42.5q4 -4 4 -11t-10 -20q-68 -74 -121 -169t-91 -207.5t-58.5 -237.5t-20.5 -256q0 -98 24.5 -152.5t84.5 -54.5q80 0 155 115 q6 4 12.5 0t2.5 -12q-20 -35 -48 -69t-58.5 -61.5t-60.5 -45t-54 -17.5q-68 0 -104 68.5t-36 175.5q0 164 37 334q-96 0 -189 -2.5t-184 -6.5l-130 -135q-62 -63 -121 -117q-164 -150 -337 -233.5t-380 -83.5q-104 0 -169 50t-88.5 126t-4 167zM1374 602q98 2 195 2h151 q35 150 96.5 292t147.5 259q-180 -145 -324 -286zM1767 1459q0 5 5 9q20 16 48.5 24.5t32.5 4.5q35 -29 83.5 -62.5t103.5 -64.5q4 -4 -1 -11t-16 -7q-25 6 -59.5 18t-69.5 27l-67 28q-33 14 -55 27q-5 2 -5 7z" />
<glyph unicode="&#xc1;" d="M111.5 343q19.5 91 87.5 171q6 4 14 -1t6 -19q-49 -53 -58 -123t21.5 -133.5t104 -106.5t192.5 -43q156 0 314.5 74t300.5 207q45 41 93 91l101 107q-141 -10 -254 -24q-10 2 -4 10t19.5 17.5t31 16.5t33.5 9q25 2 81 3t128 3l261 264q144 141 335 291q-137 45 -283.5 75 t-281.5 30q-154 0 -255.5 -89.5t-125.5 -271.5q-4 -10 -11.5 -8t-9.5 12q25 201 150 307.5t323 106.5q84 0 170 -11.5t168 -28.5t157 -38.5t136 -42.5q4 -4 4 -11t-10 -20q-68 -74 -121 -169t-91 -207.5t-58.5 -237.5t-20.5 -256q0 -98 24.5 -152.5t84.5 -54.5q80 0 155 115 q6 4 12.5 0t2.5 -12q-20 -35 -48 -69t-58.5 -61.5t-60.5 -45t-54 -17.5q-68 0 -104 68.5t-36 175.5q0 164 37 334q-96 0 -189 -2.5t-184 -6.5l-130 -135q-62 -63 -121 -117q-164 -150 -337 -233.5t-380 -83.5q-104 0 -169 50t-88.5 126t-4 167zM1374 602q98 2 195 2h151 q35 150 96.5 292t147.5 259q-180 -145 -324 -286zM1839 1356q0 8 6 14q41 25 90.5 58.5t87.5 74.5q10 6 38 -3t46 -17q4 -4 6.5 -9.5t-4.5 -9.5q-20 -14 -52 -30.5t-67.5 -32t-73.5 -29.5t-69 -24q-8 0 -8 8z" />
<glyph unicode="&#xc2;" d="M111.5 343q19.5 91 87.5 171q6 4 14 -1t6 -19q-49 -53 -58 -123t21.5 -133.5t104 -106.5t192.5 -43q156 0 314.5 74t300.5 207q45 41 93 91l101 107q-141 -10 -254 -24q-10 2 -4 10t19.5 17.5t31 16.5t33.5 9q25 2 81 3t128 3l261 264q144 141 335 291q-137 45 -283.5 75 t-281.5 30q-154 0 -255.5 -89.5t-125.5 -271.5q-4 -10 -11.5 -8t-9.5 12q25 201 150 307.5t323 106.5q84 0 170 -11.5t168 -28.5t157 -38.5t136 -42.5q4 -4 4 -11t-10 -20q-68 -74 -121 -169t-91 -207.5t-58.5 -237.5t-20.5 -256q0 -98 24.5 -152.5t84.5 -54.5q80 0 155 115 q6 4 12.5 0t2.5 -12q-20 -35 -48 -69t-58.5 -61.5t-60.5 -45t-54 -17.5q-68 0 -104 68.5t-36 175.5q0 164 37 334q-96 0 -189 -2.5t-184 -6.5l-130 -135q-62 -63 -121 -117q-164 -150 -337 -233.5t-380 -83.5q-104 0 -169 50t-88.5 126t-4 167zM1374 602q98 2 195 2h151 q35 150 96.5 292t147.5 259q-180 -145 -324 -286zM1817 1391q35 20 89 59t87 78q10 10 24 -2q27 -35 69 -71t83 -54q10 -10 -9.5 -20.5t-43.5 -6.5q-39 16 -71 40l-65 50q-12 -10 -32 -22l-42 -26l-43 -25q-22 -12 -36 -19q-20 1 -10 19z" />
<glyph unicode="&#xc3;" d="M111.5 343q19.5 91 87.5 171q6 4 14 -1t6 -19q-49 -53 -58 -123t21.5 -133.5t104 -106.5t192.5 -43q156 0 314.5 74t300.5 207q45 41 93 91l101 107q-141 -10 -254 -24q-10 2 -4 10t19.5 17.5t31 16.5t33.5 9q25 2 81 3t128 3l261 264q144 141 335 291q-137 45 -283.5 75 t-281.5 30q-154 0 -255.5 -89.5t-125.5 -271.5q-4 -10 -11.5 -8t-9.5 12q25 201 150 307.5t323 106.5q84 0 170 -11.5t168 -28.5t157 -38.5t136 -42.5q4 -4 4 -11t-10 -20q-68 -74 -121 -169t-91 -207.5t-58.5 -237.5t-20.5 -256q0 -98 24.5 -152.5t84.5 -54.5q80 0 155 115 q6 4 12.5 0t2.5 -12q-20 -35 -48 -69t-58.5 -61.5t-60.5 -45t-54 -17.5q-68 0 -104 68.5t-36 175.5q0 164 37 334q-96 0 -189 -2.5t-184 -6.5l-130 -135q-62 -63 -121 -117q-164 -150 -337 -233.5t-380 -83.5q-104 0 -169 50t-88.5 126t-4 167zM1374 602q98 2 195 2h151 q35 150 96.5 292t147.5 259q-180 -145 -324 -286zM1782 1378q23 33 60.5 64t72.5 31q25 0 44 -12l41 -24q22 -13 47.5 -24.5t57.5 -11.5q37 0 60.5 23.5t44.5 66.5q4 4 11 1t5 -9q-25 -55 -59.5 -88t-95.5 -33q-29 0 -52.5 10t-45 23.5t-42 24t-41.5 10.5q-27 0 -49 -17.5 t-45 -46.5q-8 -4 -13 1t-1 11z" />
<glyph unicode="&#xc4;" d="M111.5 343q19.5 91 87.5 171q6 4 14 -1t6 -19q-49 -53 -58 -123t21.5 -133.5t104 -106.5t192.5 -43q156 0 314.5 74t300.5 207q45 41 93 91l101 107q-141 -10 -254 -24q-10 2 -4 10t19.5 17.5t31 16.5t33.5 9q25 2 81 3t128 3l261 264q144 141 335 291q-137 45 -283.5 75 t-281.5 30q-154 0 -255.5 -89.5t-125.5 -271.5q-4 -10 -11.5 -8t-9.5 12q25 201 150 307.5t323 106.5q84 0 170 -11.5t168 -28.5t157 -38.5t136 -42.5q4 -4 4 -11t-10 -20q-68 -74 -121 -169t-91 -207.5t-58.5 -237.5t-20.5 -256q0 -98 24.5 -152.5t84.5 -54.5q80 0 155 115 q6 4 12.5 0t2.5 -12q-20 -35 -48 -69t-58.5 -61.5t-60.5 -45t-54 -17.5q-68 0 -104 68.5t-36 175.5q0 164 37 334q-96 0 -189 -2.5t-184 -6.5l-130 -135q-62 -63 -121 -117q-164 -150 -337 -233.5t-380 -83.5q-104 0 -169 50t-88.5 126t-4 167zM1374 602q98 2 195 2h151 q35 150 96.5 292t147.5 259q-180 -145 -324 -286zM1896 1401q0 20 20.5 48t53.5 28q18 0 19 -27q0 -29 -20.5 -56.5t-49.5 -27.5q-23 0 -23 35zM2052 1401q0 20 20.5 48t51.5 28q18 0 18 -27q0 -29 -20.5 -56.5t-44.5 -27.5q-25 0 -25 35z" />
<glyph unicode="&#xc5;" d="M111.5 343q19.5 91 87.5 171q6 4 14 -1t6 -19q-49 -53 -58 -123t21.5 -133.5t104 -106.5t192.5 -43q156 0 314.5 74t300.5 207q45 41 93 91l101 107q-141 -10 -254 -24q-10 2 -4 10t19.5 17.5t31 16.5t33.5 9q25 2 81 3t128 3l261 264q144 141 335 291q-137 45 -283.5 75 t-281.5 30q-154 0 -255.5 -89.5t-125.5 -271.5q-4 -10 -11.5 -8t-9.5 12q25 201 150 307.5t323 106.5q84 0 170 -11.5t168 -28.5t157 -38.5t136 -42.5q4 -4 4 -11t-10 -20q-68 -74 -121 -169t-91 -207.5t-58.5 -237.5t-20.5 -256q0 -98 24.5 -152.5t84.5 -54.5q80 0 155 115 q6 4 12.5 0t2.5 -12q-20 -35 -48 -69t-58.5 -61.5t-60.5 -45t-54 -17.5q-68 0 -104 68.5t-36 175.5q0 164 37 334q-96 0 -189 -2.5t-184 -6.5l-130 -135q-62 -63 -121 -117q-164 -150 -337 -233.5t-380 -83.5q-104 0 -169 50t-88.5 126t-4 167zM1374 602q98 2 195 2h151 q35 150 96.5 292t147.5 259q-180 -145 -324 -286zM1925 1446q0 47 36 84t89 37q35 0 51.5 -20.5t16.5 -51.5q0 -47 -35 -85t-90 -38q-33 0 -50.5 21.5t-17.5 52.5zM1958 1462q0 -29 14.5 -47t46.5 -18q31 0 48.5 22.5t17.5 59.5q0 63 -60 63q-33 0 -50 -21.5t-17 -58.5z" />
<glyph unicode="&#xc6;" horiz-adv-x="2603" d="M111.5 343q19.5 91 87.5 171q8 4 15 -1t7 -19q-49 -53 -59 -123t21.5 -133.5t105 -106.5t192.5 -43q156 0 313.5 74t299.5 207q45 41 92 91l100 103l-116 -8q-56 -4 -105 -12q-10 2 -4 10t18.5 17.5t29.5 16.5t34 9q23 2 71 3t109 3l261 264q144 141 335 291 q-135 45 -282.5 75t-282.5 30q-154 0 -255.5 -89.5t-123.5 -271.5q-4 -10 -11.5 -8t-9.5 12q23 201 148 307.5t325 106.5q84 0 168 -11.5t164 -28.5t153 -37.5t134 -41.5q6 -4 10 -11t-6 -22q-86 -119 -136 -249t-79 -281q66 92 158 138t209 69q-55 29 -87 79t-32 103 q0 57 26.5 110.5t74.5 93.5t115.5 64.5t151.5 24.5q49 0 95.5 -9.5t83 -24.5t58.5 -34.5t22 -40.5q0 -16 -7.5 -37.5t-16.5 -44t-19.5 -42t-16.5 -27.5q-6 -4 -12 -1t-4 11q12 23 18 50.5t-10 54.5q-23 37 -86.5 73.5t-145.5 36.5q-121 0 -183 -59.5t-62 -153.5 q0 -66 47 -122t145 -85q6 -4 1 -13t-15 -19.5t-23.5 -18.5t-21.5 -10q-229 10 -356 -99.5t-127 -330.5q0 -72 21.5 -133.5t61 -106.5t96 -70.5t128.5 -25.5q168 0 274.5 78t153.5 252q6 10 13 6t9 -17q-27 -115 -59.5 -190.5t-61.5 -87.5q-72 -33 -173 -55.5t-205 -22.5 q-84 0 -147.5 26.5t-106.5 72.5t-64.5 109.5t-21.5 137.5q0 53 5 112.5t15 123.5q-2 -2 -3 -2t-3 -2q-104 0 -206.5 -3.5t-199.5 -7.5l-129 -134l-120 -118q-164 -150 -338 -232.5t-379 -82.5q-104 0 -170 50t-89.5 126t-4 167zM1376 602q51 0 106.5 1t106.5 1h95h73 q29 143 81 288.5t128 262.5q-182 -145 -326 -286z" />
<glyph unicode="&#xc7;" horiz-adv-x="1140" d="M141 502q0 162 59.5 310.5t167 261t257 179t329.5 66.5q74 0 134.5 -7t105.5 -21.5t69.5 -35t24.5 -45.5q0 -16 -6 -39.5t-17.5 -48l-23.5 -48t-24 -40.5q-6 -4 -13.5 0t-5.5 15q43 76 19 116q-29 45 -115 80t-197 35q-147 0 -268 -52t-208 -147.5t-135 -226.5t-48 -289 q0 -115 30.5 -212t89 -167.5t144.5 -110.5t197 -40q147 0 245.5 91t139.5 243q6 10 14 7t8 -14q-8 -43 -23.5 -94t-34 -97t-37 -80t-30.5 -38q-123 -49 -291 -53q-16 -12 -22 -31.5t0 -36.5q18 -47 -10.5 -98t-100.5 -80q-6 2 -7 9.5t3 11.5q53 25 68.5 54.5t3.5 70.5 q-8 25 2 54.5t37 45.5q-125 0 -223.5 39t-167 106.5t-104.5 159t-36 197.5z" />
<glyph unicode="&#xc8;" horiz-adv-x="948" d="M59 324q0 98 36 185t100.5 154.5t153.5 114.5t196 66q-66 35 -102.5 82t-36.5 102q0 57 29.5 109.5t81.5 92.5t123 64.5t155 24.5q49 0 96 -9.5t84 -24.5t58.5 -34.5t21.5 -40.5q0 -16 -7.5 -37.5t-16.5 -44t-20.5 -42t-17.5 -27.5q-4 -4 -11 -1t-5 11q12 23 18 50.5 t-10 54.5q-23 37 -86 73.5t-145 36.5q-68 0 -117 -18.5t-83 -49t-50.5 -68.5t-16.5 -77q0 -72 48.5 -122t164.5 -85q6 -4 1 -13t-15 -19.5t-23.5 -18.5t-21.5 -10q-229 10 -356 -99.5t-127 -330.5q0 -72 21.5 -133.5t61.5 -106.5t96 -70.5t128 -25.5q168 0 274.5 78 t153.5 252q6 10 13 6t9 -17q-25 -115 -58.5 -190.5t-61.5 -87.5q-72 -33 -173.5 -55.5t-205.5 -22.5q-86 0 -152.5 26.5t-112 71.5t-69 104t-23.5 122zM688 1459q0 5 4 9q20 16 49 24.5t33 4.5q35 -29 83 -62.5t104 -64.5q4 -4 -1.5 -11t-15.5 -7q-25 6 -59.5 18t-69.5 27 l-67 28q-33 14 -56 27q-4 2 -4 7z" />
<glyph unicode="&#xc9;" horiz-adv-x="948" d="M59 324q0 98 36 185t100.5 154.5t153.5 114.5t196 66q-66 35 -102.5 82t-36.5 102q0 57 29.5 109.5t81.5 92.5t123 64.5t155 24.5q49 0 96 -9.5t84 -24.5t58.5 -34.5t21.5 -40.5q0 -16 -7.5 -37.5t-16.5 -44t-20.5 -42t-17.5 -27.5q-4 -4 -11 -1t-5 11q12 23 18 50.5 t-10 54.5q-23 37 -86 73.5t-145 36.5q-68 0 -117 -18.5t-83 -49t-50.5 -68.5t-16.5 -77q0 -72 48.5 -122t164.5 -85q6 -4 1 -13t-15 -19.5t-23.5 -18.5t-21.5 -10q-229 10 -356 -99.5t-127 -330.5q0 -72 21.5 -133.5t61.5 -106.5t96 -70.5t128 -25.5q168 0 274.5 78 t153.5 252q6 10 13 6t9 -17q-25 -115 -58.5 -190.5t-61.5 -87.5q-72 -33 -173.5 -55.5t-205.5 -22.5q-86 0 -152.5 26.5t-112 71.5t-69 104t-23.5 122zM700 1356q0 8 7 14q41 25 90 58.5t88 74.5q10 6 37.5 -3t46.5 -17q4 -4 6 -9.5t-4 -9.5q-20 -14 -52 -30.5t-68 -32 t-74 -29.5t-68 -24q-9 0 -9 8z" />
<glyph unicode="&#xca;" horiz-adv-x="948" d="M59 324q0 98 36 185t100.5 154.5t153.5 114.5t196 66q-66 35 -102.5 82t-36.5 102q0 57 29.5 109.5t81.5 92.5t123 64.5t155 24.5q49 0 96 -9.5t84 -24.5t58.5 -34.5t21.5 -40.5q0 -16 -7.5 -37.5t-16.5 -44t-20.5 -42t-17.5 -27.5q-4 -4 -11 -1t-5 11q12 23 18 50.5 t-10 54.5q-23 37 -86 73.5t-145 36.5q-68 0 -117 -18.5t-83 -49t-50.5 -68.5t-16.5 -77q0 -72 48.5 -122t164.5 -85q6 -4 1 -13t-15 -19.5t-23.5 -18.5t-21.5 -10q-229 10 -356 -99.5t-127 -330.5q0 -72 21.5 -133.5t61.5 -106.5t96 -70.5t128 -25.5q168 0 274.5 78 t153.5 252q6 10 13 6t9 -17q-25 -115 -58.5 -190.5t-61.5 -87.5q-72 -33 -173.5 -55.5t-205.5 -22.5q-86 0 -152.5 26.5t-112 71.5t-69 104t-23.5 122zM625 1391q35 20 89 59t87 78q10 10 24 -2q27 -35 69 -71t83 -54q10 -10 -9.5 -20.5t-43.5 -6.5q-39 16 -71 40l-65 50 q-12 -10 -32 -22l-42 -26l-43 -25q-22 -12 -36 -19q-20 1 -10 19z" />
<glyph unicode="&#xcb;" horiz-adv-x="948" d="M59 324q0 98 36 185t100.5 154.5t153.5 114.5t196 66q-66 35 -102.5 82t-36.5 102q0 57 29.5 109.5t81.5 92.5t123 64.5t155 24.5q49 0 96 -9.5t84 -24.5t58.5 -34.5t21.5 -40.5q0 -16 -7.5 -37.5t-16.5 -44t-20.5 -42t-17.5 -27.5q-4 -4 -11 -1t-5 11q12 23 18 50.5 t-10 54.5q-23 37 -86 73.5t-145 36.5q-68 0 -117 -18.5t-83 -49t-50.5 -68.5t-16.5 -77q0 -72 48.5 -122t164.5 -85q6 -4 1 -13t-15 -19.5t-23.5 -18.5t-21.5 -10q-229 10 -356 -99.5t-127 -330.5q0 -72 21.5 -133.5t61.5 -106.5t96 -70.5t128 -25.5q168 0 274.5 78 t153.5 252q6 10 13 6t9 -17q-25 -115 -58.5 -190.5t-61.5 -87.5q-72 -33 -173.5 -55.5t-205.5 -22.5q-86 0 -152.5 26.5t-112 71.5t-69 104t-23.5 122zM717 1401q0 20 20.5 48t53.5 28q18 0 18 -27q0 -29 -20.5 -56.5t-49.5 -27.5q-22 0 -22 35zM872 1401q0 20 20.5 48 t51.5 28q18 0 19 -27q0 -29 -20.5 -56.5t-45.5 -27.5t-25 35z" />
<glyph unicode="&#xcc;" horiz-adv-x="1052" d="M20 190q0 63 53.5 127t143.5 105q10 -2 11 -8t-3 -11q-63 -35 -94 -79.5t-31 -92.5q0 -70 63.5 -121t192.5 -51q162 0 288 67t222 224q-104 6 -159.5 80t-55.5 191q0 127 61.5 251.5t167 225t248 162t302.5 61.5q6 -4 4 -12.5t-10.5 -18.5t-18.5 -20t-19 -15 q-41 -12 -73.5 -32.5t-63 -63.5t-59.5 -117.5t-60 -193.5q-74 -281 -200 -475q29 4 54.5 14t39.5 19q6 2 8 -3.5t-2 -11.5q-43 -29 -112 -39q-119 -172 -277 -262t-352 -90q-123 0 -196 55t-73 135zM678 629q0 -123 54 -187.5t147 -70.5q47 82 88 189.5t75 242.5 q23 86 47.5 154.5t55.5 122t68.5 93t84.5 68.5q-141 -16 -255.5 -78.5t-195.5 -148.5t-125 -187.5t-44 -197.5zM987 1459q0 5 4 9q20 16 49 24.5t33 4.5q35 -29 83 -62.5t104 -64.5q4 -4 -1.5 -11t-15.5 -7q-25 6 -59.5 18t-69.5 27l-67 28q-33 14 -56 27q-4 2 -4 7z" />
<glyph unicode="&#xcd;" horiz-adv-x="1052" d="M20 190q0 63 53.5 127t143.5 105q10 -2 11 -8t-3 -11q-63 -35 -94 -79.5t-31 -92.5q0 -70 63.5 -121t192.5 -51q162 0 288 67t222 224q-104 6 -159.5 80t-55.5 191q0 127 61.5 251.5t167 225t248 162t302.5 61.5q6 -4 4 -12.5t-10.5 -18.5t-18.5 -20t-19 -15 q-41 -12 -73.5 -32.5t-63 -63.5t-59.5 -117.5t-60 -193.5q-74 -281 -200 -475q29 4 54.5 14t39.5 19q6 2 8 -3.5t-2 -11.5q-43 -29 -112 -39q-119 -172 -277 -262t-352 -90q-123 0 -196 55t-73 135zM678 629q0 -123 54 -187.5t147 -70.5q47 82 88 189.5t75 242.5 q23 86 47.5 154.5t55.5 122t68.5 93t84.5 68.5q-141 -16 -255.5 -78.5t-195.5 -148.5t-125 -187.5t-44 -197.5zM1044 1356q0 8 7 14q41 25 90 58.5t88 74.5q10 6 37.5 -3t46.5 -17q4 -4 6 -9.5t-4 -9.5q-20 -14 -52 -30.5t-68 -32t-74 -29.5t-68 -24q-9 0 -9 8z" />
<glyph unicode="&#xce;" horiz-adv-x="1052" d="M20 190q0 63 53.5 127t143.5 105q10 -2 11 -8t-3 -11q-63 -35 -94 -79.5t-31 -92.5q0 -70 63.5 -121t192.5 -51q162 0 288 67t222 224q-104 6 -159.5 80t-55.5 191q0 127 61.5 251.5t167 225t248 162t302.5 61.5q6 -4 4 -12.5t-10.5 -18.5t-18.5 -20t-19 -15 q-41 -12 -73.5 -32.5t-63 -63.5t-59.5 -117.5t-60 -193.5q-74 -281 -200 -475q29 4 54.5 14t39.5 19q6 2 8 -3.5t-2 -11.5q-43 -29 -112 -39q-119 -172 -277 -262t-352 -90q-123 0 -196 55t-73 135zM678 629q0 -123 54 -187.5t147 -70.5q47 82 88 189.5t75 242.5 q23 86 47.5 154.5t55.5 122t68.5 93t84.5 68.5q-141 -16 -255.5 -78.5t-195.5 -148.5t-125 -187.5t-44 -197.5zM1030 1391q35 20 89.5 59t86.5 78q10 10 25 -2q27 -35 68.5 -71t82.5 -54q10 -10 -9 -20.5t-44 -6.5q-39 16 -71 40l-64 50q-12 -10 -33 -22l-42 -26l-43 -25 q-22 -12 -36 -19q-20 1 -10 19z" />
<glyph unicode="&#xcf;" horiz-adv-x="1052" d="M20 190q0 63 53.5 127t143.5 105q10 -2 11 -8t-3 -11q-63 -35 -94 -79.5t-31 -92.5q0 -70 63.5 -121t192.5 -51q162 0 288 67t222 224q-104 6 -159.5 80t-55.5 191q0 127 61.5 251.5t167 225t248 162t302.5 61.5q6 -4 4 -12.5t-10.5 -18.5t-18.5 -20t-19 -15 q-41 -12 -73.5 -32.5t-63 -63.5t-59.5 -117.5t-60 -193.5q-74 -281 -200 -475q29 4 54.5 14t39.5 19q6 2 8 -3.5t-2 -11.5q-43 -29 -112 -39q-119 -172 -277 -262t-352 -90q-123 0 -196 55t-73 135zM678 629q0 -123 54 -187.5t147 -70.5q47 82 88 189.5t75 242.5 q23 86 47.5 154.5t55.5 122t68.5 93t84.5 68.5q-141 -16 -255.5 -78.5t-195.5 -148.5t-125 -187.5t-44 -197.5zM1094 1401q0 20 20.5 48t52.5 28q18 0 19 -27q0 -29 -20.5 -56.5t-49.5 -27.5q-22 0 -22 35zM1249 1401q0 20 20.5 48t51.5 28q18 0 18 -27q0 -29 -20.5 -56.5 t-44.5 -27.5q-25 0 -25 35z" />
<glyph unicode="&#xd0;" horiz-adv-x="1638" d="M61 59q0 27 18.5 55.5t52.5 53.5t81 40t106 15q78 0 144.5 -14t132.5 -35q59 61 111.5 160.5t105.5 247.5q-72 -4 -134.5 -10.5t-111.5 -14.5q-8 4 3.5 14.5t33.5 20.5q29 4 88.5 9t130.5 9l26 74q13 39 25 80q43 133 94.5 234.5t118.5 172.5q-80 41 -170 66t-188 25 q-162 0 -266.5 -96.5t-126.5 -252.5q-4 -4 -10.5 -2t-6.5 11q8 86 45 158.5t99.5 126t148.5 83t195 29.5q96 0 182 -22.5t164 -61.5q53 43 117.5 72.5t144.5 46.5q6 0 6 -7.5t-6 -11.5q-123 -33 -221 -125q100 -59 181 -142t137.5 -175t86 -187.5t29.5 -181.5 q0 -115 -38 -210t-109.5 -165.5t-176 -109.5t-237.5 -39q-78 0 -144.5 10t-127 25.5t-116.5 34.5l-112 36q-78 -55 -173 -80.5t-214 -25.5q-66 0 -92.5 15t-26.5 44zM125 102q-6 -29 21.5 -47t105.5 -18q86 0 154.5 18.5t128.5 63.5q-68 20 -139.5 33.5t-157.5 13.5 q-57 0 -83 -17.5t-30 -46.5zM633 160l106 -37q55 -18 118 -33.5t137.5 -25t164.5 -9.5q195 0 292 110.5t97 293.5q0 96 -28.5 193.5t-83 188.5t-130 170t-169.5 136q-104 -131 -168 -342q-16 -53 -33.5 -100.5t-36.5 -92.5q76 4 144.5 4t115.5 -2q4 -2 3 -9t-13 -9 q-57 0 -124 -2t-134 -6q-57 -145 -119.5 -250.5t-138.5 -177.5z" />
<glyph unicode="&#xd1;" horiz-adv-x="1630" d="M-282.5 410.5q26.5 103.5 114.5 183.5q10 2 15.5 -5t0.5 -18q-59 -59 -75.5 -142t16.5 -158.5t117 -129t227 -53.5q141 0 264 68.5t220.5 198.5t166 319.5t103.5 431.5q-86 72 -178.5 108.5t-192.5 36.5q-98 0 -162.5 -45t-93.5 -100q-6 -4 -13 -2t-9 12q18 39 49.5 76 t72.5 64.5t94.5 45t114.5 17.5q86 0 169 -32t161 -91v4q2 12 10.5 28.5t17.5 30t17 18.5t10 -5q-2 -29 -5 -56.5t-7 -54.5q88 -78 168 -182.5t147.5 -227t122 -259t95.5 -275.5q14 123 46.5 253t80 252t105.5 230.5t122.5 190.5t131.5 129t132 47q57 0 91 -44t34 -153 q-2 -12 -11 -13t-14 11q-4 37 -26.5 63.5t-55 38t-72.5 6.5t-79 -34q-100 -72 -184 -203t-147.5 -289.5t-100.5 -332.5t-43 -332q0 -23 -4 -30t-15 -7q-8 0 -13 9t-9 22q-92 350 -221 617t-295 421q-45 -254 -129 -452.5t-197 -336t-246 -209t-274 -71.5q-145 0 -235.5 62.5 t-123 153.5t-6 194.5zM1255 1378q23 33 61 64t73 31q25 0 44 -12l41 -24q22 -13 47 -24.5t58 -11.5q37 0 60.5 23.5t43.5 66.5q4 4 11.5 1t5.5 -9q-25 -55 -59.5 -88t-96.5 -33q-29 0 -52.5 10t-45 23.5t-42 24t-40.5 10.5q-27 0 -49.5 -17.5t-44.5 -46.5q-8 -4 -13.5 1 t-1.5 11z" />
<glyph unicode="&#xd2;" horiz-adv-x="1245" d="M147 475q0 156 59.5 308.5t164 271.5t245 192.5t302.5 73.5q96 0 173.5 -37t132 -102.5t84 -154.5t29.5 -196q0 -168 -64.5 -318.5t-169 -264t-239.5 -181t-276 -67.5q-109 0 -191 39t-137 104.5t-84 151.5t-29 180zM233 543q0 -106 30 -194.5t86.5 -152t139 -98.5 t187.5 -35q106 0 209.5 51.5t185.5 144.5t133 223t51 288q0 225 -107.5 353t-295.5 128q-137 0 -251 -55t-195.5 -151.5t-127 -225.5t-45.5 -276zM739 1459q0 5 4 9q20 16 49 24.5t33 4.5q35 -29 83 -62.5t104 -64.5q4 -4 -1 -11t-16 -7q-25 6 -59.5 18t-69.5 27l-67 28 q-33 14 -56 27q-4 2 -4 7z" />
<glyph unicode="&#xd3;" horiz-adv-x="1245" d="M147 475q0 156 59.5 308.5t164 271.5t245 192.5t302.5 73.5q96 0 173.5 -37t132 -102.5t84 -154.5t29.5 -196q0 -168 -64.5 -318.5t-169 -264t-239.5 -181t-276 -67.5q-109 0 -191 39t-137 104.5t-84 151.5t-29 180zM233 543q0 -106 30 -194.5t86.5 -152t139 -98.5 t187.5 -35q106 0 209.5 51.5t185.5 144.5t133 223t51 288q0 225 -107.5 353t-295.5 128q-137 0 -251 -55t-195.5 -151.5t-127 -225.5t-45.5 -276zM774 1356q0 8 6 14q41 25 90.5 58.5t87.5 74.5q10 6 38 -3t46 -17q4 -4 6.5 -9.5t-4.5 -9.5q-20 -14 -51.5 -30.5t-67.5 -32 t-74 -29.5t-69 -24q-8 0 -8 8z" />
<glyph unicode="&#xd4;" horiz-adv-x="1245" d="M147 475q0 156 59.5 308.5t164 271.5t245 192.5t302.5 73.5q96 0 173.5 -37t132 -102.5t84 -154.5t29.5 -196q0 -168 -64.5 -318.5t-169 -264t-239.5 -181t-276 -67.5q-109 0 -191 39t-137 104.5t-84 151.5t-29 180zM233 543q0 -106 30 -194.5t86.5 -152t139 -98.5 t187.5 -35q106 0 209.5 51.5t185.5 144.5t133 223t51 288q0 225 -107.5 353t-295.5 128q-137 0 -251 -55t-195.5 -151.5t-127 -225.5t-45.5 -276zM745 1391q35 20 89.5 59t87.5 78q10 10 24 -2q27 -35 69 -71t83 -54q10 -10 -9.5 -20.5t-44.5 -6.5q-39 16 -70 40l-65 50 q-12 -10 -32 -22l-42 -26l-43 -25q-22 -12 -36 -19q-21 1 -11 19z" />
<glyph unicode="&#xd5;" horiz-adv-x="1245" d="M147 475q0 156 59.5 308.5t164 271.5t245 192.5t302.5 73.5q96 0 173.5 -37t132 -102.5t84 -154.5t29.5 -196q0 -168 -64.5 -318.5t-169 -264t-239.5 -181t-276 -67.5q-109 0 -191 39t-137 104.5t-84 151.5t-29 180zM233 543q0 -106 30 -194.5t86.5 -152t139 -98.5 t187.5 -35q106 0 209.5 51.5t185.5 144.5t133 223t51 288q0 225 -107.5 353t-295.5 128q-137 0 -251 -55t-195.5 -151.5t-127 -225.5t-45.5 -276zM707 1378q23 33 60.5 64t72.5 31q25 0 44 -12l41 -24q22 -13 47 -24.5t58 -11.5q37 0 60.5 23.5t44.5 66.5q4 4 11 1t5 -9 q-25 -55 -59.5 -88t-96.5 -33q-29 0 -52 10t-44.5 23.5t-42 24t-41.5 10.5q-27 0 -49.5 -17.5t-44.5 -46.5q-8 -4 -13 1t-1 11z" />
<glyph unicode="&#xd6;" horiz-adv-x="1245" d="M147 475q0 156 59.5 308.5t164 271.5t245 192.5t302.5 73.5q96 0 173.5 -37t132 -102.5t84 -154.5t29.5 -196q0 -168 -64.5 -318.5t-169 -264t-239.5 -181t-276 -67.5q-109 0 -191 39t-137 104.5t-84 151.5t-29 180zM233 543q0 -106 30 -194.5t86.5 -152t139 -98.5 t187.5 -35q106 0 209.5 51.5t185.5 144.5t133 223t51 288q0 225 -107.5 353t-295.5 128q-137 0 -251 -55t-195.5 -151.5t-127 -225.5t-45.5 -276zM809 1401q0 20 20.5 48t53.5 28q18 0 18 -27q0 -29 -20.5 -56.5t-49.5 -27.5q-22 0 -22 35zM965 1401q0 20 20.5 48t50.5 28 q18 0 19 -27q0 -29 -20.5 -56.5t-45.5 -27.5q-24 0 -24 35z" />
<glyph unicode="&#xd7;" horiz-adv-x="616" d="M111 119l98 87l100 91l-44 81l-44 79q-2 12 13.5 24.5t23.5 -0.5l37 -65l47 -88l166 153q8 4 19.5 5t20.5 -1t14 -6t1 -12q-104 -86 -201 -176l47 -86q24 -43 42 -80q4 -10 -13.5 -20.5t-23.5 -2.5l-41 79l-43 81l-84 -79l-78 -72q-10 -6 -21.5 -8.5t-20.5 -1.5t-14 5.5 t-1 12.5z" />
<glyph unicode="&#xd8;" horiz-adv-x="1239" d="M143 475q0 104 28 207.5t77 197t118.5 174.5t155.5 139t184.5 92t206.5 34q111 0 201 -51l31 42q14 19 29 36q12 10 26 7t10 -18q-14 -16 -30.5 -37.5t-34.5 -48.5q90 -61 138 -169.5t48 -248.5q0 -168 -63.5 -318.5t-169 -264t-239.5 -181t-275 -67.5q-88 0 -158 25.5 t-123 70.5l-51 -70l-39 -57q-10 -12 -25.5 -9t-11.5 15l46 65l57 77q-68 68 -102 161t-34 197zM229 543q0 -213 109 -340l174 238l190 264l189 260l168 229q-90 55 -213 55q-137 0 -251 -55t-195 -151.5t-126 -225.5t-45 -274zM360 178q57 -55 134 -86t176 -31 q106 0 210.5 51.5t186.5 144.5t132 224t50 289q0 139 -42 241.5t-120 162.5l-169 -229l-193 -262l-194 -266z" />
<glyph unicode="&#xd9;" horiz-adv-x="1468" d="M86 890q25 122 92.5 217t177 153.5t254.5 58.5q86 0 166 -18.5t144 -47.5q12 -10 -7 -24q-109 -86 -191.5 -193.5t-141 -227.5t-88 -246t-29.5 -249q0 -135 47 -188t125 -53q106 0 208.5 71.5t210 220t227.5 375t259 535.5q8 16 35 30.5t55 14.5q33 0 33 -14 q-37 -43 -82 -122t-89 -178.5t-86 -212t-75 -220t-52 -203t-19 -162.5q0 -117 75 -117q78 0 152 115q6 6 14 1t6 -13q-23 -35 -50 -69t-58 -61.5t-60.5 -45t-54.5 -17.5q-57 0 -82.5 47t-25.5 113q0 102 30.5 243.5t96.5 305.5q-186 -350 -368.5 -529.5t-363.5 -179.5 q-98 0 -148 66.5t-50 189.5q0 125 31.5 252t91 249t144.5 234.5t194 208.5q-53 20 -133 36.5t-164 16.5q-125 0 -215.5 -54t-143.5 -141t-70.5 -195.5t5.5 -215.5q-2 -8 -10.5 -12t-12.5 4q-29 129 -4 251zM1055 1459q0 5 4 9q20 16 49 24.5t33 4.5q35 -29 83 -62.5 t103 -64.5q4 -4 -1 -11t-15 -7q-25 6 -59.5 18t-69.5 27l-68 28q-33 14 -55 27q-4 2 -4 7z" />
<glyph unicode="&#xda;" horiz-adv-x="1468" d="M86 890q25 122 92.5 217t177 153.5t254.5 58.5q86 0 166 -18.5t144 -47.5q12 -10 -7 -24q-109 -86 -191.5 -193.5t-141 -227.5t-88 -246t-29.5 -249q0 -135 47 -188t125 -53q106 0 208.5 71.5t210 220t227.5 375t259 535.5q8 16 35 30.5t55 14.5q33 0 33 -14 q-37 -43 -82 -122t-89 -178.5t-86 -212t-75 -220t-52 -203t-19 -162.5q0 -117 75 -117q78 0 152 115q6 6 14 1t6 -13q-23 -35 -50 -69t-58 -61.5t-60.5 -45t-54.5 -17.5q-57 0 -82.5 47t-25.5 113q0 102 30.5 243.5t96.5 305.5q-186 -350 -368.5 -529.5t-363.5 -179.5 q-98 0 -148 66.5t-50 189.5q0 125 31.5 252t91 249t144.5 234.5t194 208.5q-53 20 -133 36.5t-164 16.5q-125 0 -215.5 -54t-143.5 -141t-70.5 -195.5t5.5 -215.5q-2 -8 -10.5 -12t-12.5 4q-29 129 -4 251zM1141 1356q0 8 6 14q41 25 90 58.5t88 74.5q10 6 38 -3t46 -17 q4 -4 6 -9.5t-4 -9.5q-20 -14 -52 -30.5t-68 -32t-73.5 -29.5t-68.5 -24q-8 0 -8 8z" />
<glyph unicode="&#xdb;" horiz-adv-x="1470" d="M86 890q25 122 92.5 217t177 153.5t254.5 58.5q86 0 166 -18.5t144 -47.5q12 -10 -7 -24q-109 -86 -191.5 -193.5t-141 -227.5t-88 -246t-29.5 -249q0 -135 47 -188t125 -53q106 0 208.5 71.5t210 220t227.5 375t259 535.5q8 16 35 30.5t55 14.5q33 0 33 -14 q-37 -43 -82 -122t-89 -178.5t-86 -212t-75 -220t-52 -203t-19 -162.5q0 -117 75 -117q78 0 152 115q6 6 14 1t6 -13q-23 -35 -50 -69t-58 -61.5t-60.5 -45t-54.5 -17.5q-57 0 -82.5 47t-25.5 113q0 102 30.5 243.5t96.5 305.5q-186 -350 -368.5 -529.5t-363.5 -179.5 q-98 0 -148 66.5t-50 189.5q0 125 31.5 252t91 249t144.5 234.5t194 208.5q-53 20 -133 36.5t-164 16.5q-125 0 -215.5 -54t-143.5 -141t-70.5 -195.5t5.5 -215.5q-2 -8 -10.5 -12t-12.5 4q-29 129 -4 251zM1059 1391q35 20 89 59t87 78q10 10 25 -2q27 -35 68.5 -71 t82.5 -54q10 -10 -9.5 -20.5t-43.5 -6.5q-39 16 -71 40l-64 50q-12 -10 -33 -22l-42 -26l-43 -25q-22 -12 -36 -19q-20 1 -10 19z" />
<glyph unicode="&#xdc;" horiz-adv-x="1470" d="M86 890q25 122 92.5 217t177 153.5t254.5 58.5q86 0 166 -18.5t144 -47.5q12 -10 -7 -24q-109 -86 -191.5 -193.5t-141 -227.5t-88 -246t-29.5 -249q0 -135 47 -188t125 -53q106 0 208.5 71.5t210 220t227.5 375t259 535.5q8 16 35 30.5t55 14.5q33 0 33 -14 q-37 -43 -82 -122t-89 -178.5t-86 -212t-75 -220t-52 -203t-19 -162.5q0 -117 75 -117q78 0 152 115q6 6 14 1t6 -13q-23 -35 -50 -69t-58 -61.5t-60.5 -45t-54.5 -17.5q-57 0 -82.5 47t-25.5 113q0 102 30.5 243.5t96.5 305.5q-186 -350 -368.5 -529.5t-363.5 -179.5 q-98 0 -148 66.5t-50 189.5q0 125 31.5 252t91 249t144.5 234.5t194 208.5q-53 20 -133 36.5t-164 16.5q-125 0 -215.5 -54t-143.5 -141t-70.5 -195.5t5.5 -215.5q-2 -8 -10.5 -12t-12.5 4q-29 129 -4 251zM1110 1401q0 20 20.5 48t53.5 28q18 0 18 -27q0 -29 -20.5 -56.5 t-48.5 -27.5q-23 0 -23 35zM1266 1401q0 20 20.5 48t50.5 28q18 0 19 -27q0 -29 -20.5 -56.5t-45.5 -27.5q-24 0 -24 35z" />
<glyph unicode="&#xdd;" horiz-adv-x="1355" d="M14 94q0 78 28 151.5t82 132t135 99.5t190 53q10 -2 9 -10t-12 -18q-94 -12 -160.5 -44t-109.5 -79t-62.5 -106.5t-19.5 -127.5q0 -156 90 -247t269 -91q131 0 249.5 45.5t233.5 152t230.5 281.5t242.5 433q-57 -94 -128 -175t-144.5 -141.5t-146 -94.5t-134.5 -34 q-92 0 -130 53.5t-24 147.5q16 113 51 225l66 218q33 102 47.5 167.5t12.5 104.5t-16.5 53t-41.5 14q-25 0 -51.5 -12t-51 -30.5t-46 -41t-33.5 -45.5q-8 -8 -15.5 -0.5t-5.5 17.5q14 23 41 53.5t63 57t75 45t77 18.5q37 0 58.5 -18.5t28 -61.5t-6 -111.5t-45.5 -169.5 l-73 -226q-33 -101 -50 -204q-12 -88 12.5 -133t104.5 -45q178 0 370.5 235.5t424.5 700.5q39 33 69 33q23 0 17 -29q-211 -449 -389 -747.5t-344 -478t-330 -253t-346 -73.5q-86 0 -153.5 28.5t-114 78t-70 113.5t-23.5 136zM1225 1356q0 8 6 14q41 25 90 58.5t88 74.5 q10 6 38 -3t46 -17q4 -4 6 -9.5t-4 -9.5q-20 -14 -52 -30.5t-68 -32t-73.5 -29.5t-68.5 -24q-8 0 -8 8z" />
<glyph unicode="&#xde;" horiz-adv-x="1525" d="M102 299q0 39 11.5 80t31 77t48 64.5t63.5 44.5q20 8 12 -14q-59 -33 -88.5 -88t-29.5 -119q0 -59 21.5 -110.5t62 -89.5t100 -59.5t137.5 -21.5q76 0 142.5 15.5t125 53.5t108.5 100.5t95 156.5q-35 25 -53 51q-4 6 1 12.5t11 2.5q12 -12 26 -22l27 -19q33 72 63 156.5 t60 191.5q20 78 43 143.5t47 124.5q-158 -2 -247 -71.5t-123 -186.5q-6 -6 -13.5 -1t-7.5 22q18 53 51 102t83.5 88t119 63.5t158.5 30.5q63 131 145 210t199 108q10 0 10 -8.5t-10 -12.5q-90 -27 -154.5 -99.5t-115.5 -195.5q80 -4 143 -31.5t108.5 -72.5t70 -102.5 t24.5 -120.5q0 -92 -32 -167t-95.5 -129.5t-155.5 -84t-213 -29.5q-66 0 -121 23q-117 -190 -262 -277.5t-313 -87.5q-78 0 -136.5 25.5t-98.5 66.5t-59.5 95.5t-19.5 111.5zM1006 391q51 -18 124 -18q94 0 167 27.5t122 74.5t74 109.5t25 134.5q0 127 -71 209t-206 98 q-14 -37 -26.5 -78t-24.5 -88q-37 -143 -84 -259t-100 -210z" />
<glyph unicode="&#xdf;" horiz-adv-x="622" d="M-672 -350q0 6 5 10t10 -2q16 -45 63 -74.5t143 -29.5q100 0 179 33.5t150 131t136.5 270.5t139.5 449q68 258 155.5 451.5t188 321.5t211 191.5t223.5 63.5q74 0 118 -43t44 -114q0 -106 -49.5 -186.5t-124 -146t-160.5 -121.5t-161 -113.5t-124 -123t-49 -147.5 q0 -47 20.5 -86t45 -76t45 -74.5t20.5 -78.5q0 -66 -46 -111t-140 -45q-63 0 -103.5 22.5t-40.5 47.5q0 18 22.5 55t51.5 59q4 4 10 -2t2 -12q-16 -16 -25 -37.5t-5 -38.5q8 -35 33.5 -52t60.5 -17q53 0 81.5 28.5t28.5 73.5q0 39 -20.5 76t-45 74.5t-45 80.5t-20.5 95 q0 82 48.5 146.5t121 121.5t157.5 112.5t157.5 117t121 135t48.5 167.5q0 68 -37 106t-109 38q-98 0 -185 -54.5t-166 -169t-149.5 -296t-132.5 -435.5q-68 -279 -149.5 -460t-175.5 -288.5t-197.5 -150.5t-214.5 -43q-88 0 -123 38t-43 112z" />
<glyph unicode="&#xe0;" horiz-adv-x="602" d="M63 147q0 68 28 134.5t75 121t108.5 87t128.5 32.5q37 0 64 -8t49 -25q12 10 33.5 19.5t40.5 9.5q7 0 7 -5q0 -2 -1 -5q-47 -57 -81 -127t-52.5 -135.5t-23.5 -115.5q-2 -15 -1 -27q0 -29 8 -42q10 -14 37 -0.5t70 68.5q4 4 10 0t4 -12q-43 -59 -85 -88t-70 -29 q-18 0 -29.5 18.5t-14.5 50.5l-2 25q0 22 4 46q5 40 17 83q-55 -86 -116.5 -148.5t-118.5 -74.5q-37 0 -63 35.5t-26 111.5zM143 174q0 -45 15.5 -74.5t38.5 -29.5t58.5 31.5t74.5 83t76.5 116t66.5 129.5q-8 27 -37.5 43t-68.5 16q-45 0 -85 -23.5t-71 -65.5t-49.5 -99 t-18.5 -127zM336 743q-12 4 0 17q18 16 47 24.5t35 3.5q29 -29 69 -61l76 -61q4 -4 -1 -10.5t-15 -8.5q-51 16 -110.5 42.5t-100.5 53.5z" />
<glyph unicode="&#xe1;" horiz-adv-x="602" d="M63 147q0 68 28 134.5t75 121t108.5 87t128.5 32.5q37 0 64 -8t49 -25q12 10 33.5 19.5t40.5 9.5q7 0 7 -5q0 -2 -1 -5q-47 -57 -81 -127t-52.5 -135.5t-23.5 -115.5q-2 -15 -1 -27q0 -29 8 -42q10 -14 37 -0.5t70 68.5q4 4 10 0t4 -12q-43 -59 -85 -88t-70 -29 q-18 0 -29.5 18.5t-14.5 50.5l-2 25q0 22 4 46q5 40 17 83q-55 -86 -116.5 -148.5t-118.5 -74.5q-37 0 -63 35.5t-26 111.5zM143 174q0 -45 15.5 -74.5t38.5 -29.5t58.5 31.5t74.5 83t76.5 116t66.5 129.5q-8 27 -37.5 43t-68.5 16q-45 0 -85 -23.5t-71 -65.5t-49.5 -99 t-18.5 -127zM354 650q0 7 8 16q27 16 70 47.5t71 66.5q10 6 38 -2t46 -16q14 -8 2 -21q-18 -12 -46.5 -26.5t-59.5 -27.5t-62.5 -24.5t-58.5 -19.5q-8 0 -8 7z" />
<glyph unicode="&#xe2;" horiz-adv-x="602" d="M63 147q0 68 28 134.5t75 121t108.5 87t128.5 32.5q37 0 64 -8t49 -25q12 10 33.5 19.5t40.5 9.5q7 0 7 -5q0 -2 -1 -5q-47 -57 -81 -127t-52.5 -135.5t-23.5 -115.5q-2 -15 -1 -27q0 -29 8 -42q10 -14 37 -0.5t70 68.5q4 4 10 0t4 -12q-43 -59 -85 -88t-70 -29 q-18 0 -29.5 18.5t-14.5 50.5l-2 25q0 22 4 46q5 40 17 83q-55 -86 -116.5 -148.5t-118.5 -74.5q-37 0 -63 35.5t-26 111.5zM143 174q0 -45 15.5 -74.5t38.5 -29.5t58.5 31.5t74.5 83t76.5 116t66.5 129.5q-8 27 -37.5 43t-68.5 16q-45 0 -85 -23.5t-71 -65.5t-49.5 -99 t-18.5 -127zM287 684q35 20 77 50t73 71q12 10 24 -2q23 -29 60.5 -59.5t76.5 -47.5q10 -10 -10 -20t-45 -6q-37 14 -61.5 29.5t-57.5 39.5l-58.5 -36.5t-66.5 -36.5q-22 0 -12 18z" />
<glyph unicode="&#xe3;" horiz-adv-x="602" d="M63 147q0 68 28 134.5t75 121t108.5 87t128.5 32.5q37 0 64 -8t49 -25q12 10 33.5 19.5t40.5 9.5q7 0 7 -5q0 -2 -1 -5q-47 -57 -81 -127t-52.5 -135.5t-23.5 -115.5q-2 -15 -1 -27q0 -29 8 -42q10 -14 37 -0.5t70 68.5q4 4 10 0t4 -12q-43 -59 -85 -88t-70 -29 q-18 0 -29.5 18.5t-14.5 50.5l-2 25q0 22 4 46q5 40 17 83q-55 -86 -116.5 -148.5t-118.5 -74.5q-37 0 -63 35.5t-26 111.5zM143 174q0 -45 15.5 -74.5t38.5 -29.5t58.5 31.5t74.5 83t76.5 116t66.5 129.5q-8 27 -37.5 43t-68.5 16q-45 0 -85 -23.5t-71 -65.5t-49.5 -99 t-18.5 -127zM246 680q25 29 51.5 50.5t48.5 27.5q16 4 31.5 -2t33 -15.5t40 -17.5t53.5 -8t52.5 15t39.5 42q6 4 13.5 1t5.5 -9q-23 -37 -55.5 -62.5t-90.5 -25.5q-27 0 -46 7t-35 14l-28 14q-13 6 -26 6q-16 -2 -31.5 -14.5t-38.5 -34.5q-22 -4 -18 12z" />
<glyph unicode="&#xe4;" horiz-adv-x="581" d="M63 147q0 68 28 134.5t75 121t108.5 87t128.5 32.5q37 0 64 -8t49 -25q12 10 33.5 19.5t40.5 9.5q7 0 7 -5q0 -2 -1 -5q-47 -57 -81 -127t-52.5 -135.5t-23.5 -115.5q-2 -15 -1 -27q0 -29 8 -42q10 -14 37 -0.5t70 68.5q4 4 10 0t4 -12q-43 -59 -85 -88t-70 -29 q-18 0 -29.5 18.5t-14.5 50.5l-2 25q0 22 4 46q5 40 17 83q-55 -86 -116.5 -148.5t-118.5 -74.5q-37 0 -63 35.5t-26 111.5zM143 174q0 -45 15.5 -74.5t38.5 -29.5t58.5 31.5t74.5 83t76.5 116t66.5 129.5q-8 27 -37.5 43t-68.5 16q-45 0 -85 -23.5t-71 -65.5t-49.5 -99 t-18.5 -127zM301 692q0 23 23.5 53.5t58.5 30.5q20 0 20 -28q0 -31 -23.5 -63t-51.5 -32q-27 0 -27 39zM475 692q0 23 22.5 53.5t57.5 30.5q20 0 20 -28q0 -31 -22.5 -63t-50.5 -32q-27 0 -27 39z" />
<glyph unicode="&#xe5;" horiz-adv-x="602" d="M63 147q0 68 28 134.5t75 121t108.5 87t128.5 32.5q37 0 64 -8t49 -25q12 10 33.5 19.5t40.5 9.5q7 0 7 -5q0 -2 -1 -5q-47 -57 -81 -127t-52.5 -135.5t-23.5 -115.5q-2 -15 -1 -27q0 -29 8 -42q10 -14 37 -0.5t70 68.5q4 4 10 0t4 -12q-43 -59 -85 -88t-70 -29 q-18 0 -29.5 18.5t-14.5 50.5l-2 25q0 22 4 46q5 40 17 83q-55 -86 -116.5 -148.5t-118.5 -74.5q-37 0 -63 35.5t-26 111.5zM143 174q0 -45 15.5 -74.5t38.5 -29.5t58.5 31.5t74.5 83t76.5 116t66.5 129.5q-8 27 -37.5 43t-68.5 16q-45 0 -85 -23.5t-71 -65.5t-49.5 -99 t-18.5 -127zM436 768q-25 0 -38 -16.5t-13 -44.5q0 -23 11 -36.5t34 -13.5t37 17.5t14 44.5q0 49 -45 49zM409 635q-27 0 -41 16.5t-14 40.5q0 41 28.5 71t73.5 30q29 0 42.5 -17.5t13.5 -42.5q0 -39 -29 -68.5t-74 -29.5z" />
<glyph unicode="&#xe6;" horiz-adv-x="743" d="M63 141q0 63 25 131t68 124.5t101 92t126 35.5q63 0 94 -35l35 31q20 18 39 19q12 0 8 -9q-14 -18 -27.5 -38.5t-25.5 -47.5q33 35 68.5 56.5t76.5 21.5q39 0 65.5 -27.5t26.5 -62.5q0 -29 -23.5 -53.5t-61 -44t-88 -35.5t-105.5 -31q-6 -43 -6 -94t23.5 -86t64.5 -35 t75.5 20.5t63.5 55.5q8 4 12 -3t2 -13q-35 -47 -87 -81t-109 -34q-55 0 -88 35t-33 102q0 78 31 156q-20 -45 -51 -92t-66 -87t-73 -71t-70 -41q-43 0 -67 33.5t-24 107.5zM135 174q0 -45 12.5 -71.5t38.5 -26.5q25 0 61 28.5t71.5 76.5t69.5 110.5t56 130.5 q-10 27 -34.5 47t-59.5 20q-45 0 -84 -25.5t-68.5 -68.5t-46 -100.5t-16.5 -120.5zM469 299q98 14 145.5 42t47.5 62q0 29 -15.5 47.5t-38.5 18.5q-47 0 -85 -41t-54 -129z" />
<glyph unicode="&#xe7;" horiz-adv-x="415" d="M61 121q0 72 22.5 144.5t61.5 130t87.5 93t101.5 35.5q41 0 66.5 -20.5t25.5 -48.5q0 -10 -7 -24.5t-16.5 -29t-19.5 -25.5t-18 -16q-12 -4 -13 11q16 41 1 71.5t-62 30.5q-33 0 -60.5 -23.5t-49 -65.5t-34 -98.5t-12.5 -121.5q0 -102 70 -103q41 0 81 26t81 73 q6 4 12 -1t2 -16q-33 -41 -70 -72.5t-75 -54.5q-29 -16 -38.5 -41.5t-0.5 -48.5q20 -51 -11.5 -107.5t-111.5 -88.5q-6 0 -7 8t3 14q57 29 75.5 61.5t4.5 75.5q-10 31 2 65t47 50q-20 -4 -33 -4q-45 0 -75 32t-30 89z" />
<glyph unicode="&#xe8;" horiz-adv-x="421" d="M61 137q0 61 22.5 130t59.5 126.5t85 94t102 36.5q39 0 65.5 -27.5t26.5 -62.5q0 -29 -22.5 -53.5t-61.5 -44t-89 -35.5t-106 -31q-2 -23 -3 -45t-1 -49q0 -51 22.5 -86t63.5 -35t77 20.5t65 55.5q8 4 12 -2t0 -14q-35 -47 -87 -81t-110 -34q-53 0 -87 34.5t-34 102.5z M150 301q98 14 144 42t46 63q0 29 -14.5 47t-38.5 18q-47 0 -84 -41t-53 -129zM242 743q-12 4 0 17q18 16 47 24.5t35 3.5q29 -29 69 -61l76 -61q4 -4 -1 -10.5t-15 -8.5q-51 16 -110.5 42.5t-100.5 53.5z" />
<glyph unicode="&#xe9;" horiz-adv-x="421" d="M61 137q0 61 22.5 130t59.5 126.5t85 94t102 36.5q39 0 65.5 -27.5t26.5 -62.5q0 -29 -22.5 -53.5t-61.5 -44t-89 -35.5t-106 -31q-2 -23 -3 -45t-1 -49q0 -51 22.5 -86t63.5 -35t77 20.5t65 55.5q8 4 12 -2t0 -14q-35 -47 -87 -81t-110 -34q-53 0 -87 34.5t-34 102.5z M150 301q98 14 144 42t46 63q0 29 -14.5 47t-38.5 18q-47 0 -84 -41t-53 -129zM266 650q0 7 8 16q27 16 70 47.5t71 66.5q10 6 38 -2t46 -16q14 -8 2 -21q-18 -12 -46.5 -26.5t-59.5 -27.5t-62.5 -24.5t-58.5 -19.5q-8 0 -8 7z" />
<glyph unicode="&#xea;" horiz-adv-x="421" d="M61 137q0 61 22.5 130t59.5 126.5t85 94t102 36.5q39 0 65.5 -27.5t26.5 -62.5q0 -29 -22.5 -53.5t-61.5 -44t-89 -35.5t-106 -31q-2 -23 -3 -45t-1 -49q0 -51 22.5 -86t63.5 -35t77 20.5t65 55.5q8 4 12 -2t0 -14q-35 -47 -87 -81t-110 -34q-53 0 -87 34.5t-34 102.5z M150 301q98 14 144 42t46 63q0 29 -14.5 47t-38.5 18q-47 0 -84 -41t-53 -129zM172 684q35 20 77 50t73 71q12 10 24 -2q23 -29 60.5 -59.5t76.5 -47.5q10 -10 -10 -20t-45 -6q-37 14 -61.5 29.5t-57.5 39.5l-58.5 -36.5t-66.5 -36.5q-22 0 -12 18z" />
<glyph unicode="&#xeb;" horiz-adv-x="421" d="M61 137q0 61 22.5 130t59.5 126.5t85 94t102 36.5q39 0 65.5 -27.5t26.5 -62.5q0 -29 -22.5 -53.5t-61.5 -44t-89 -35.5t-106 -31q-2 -23 -3 -45t-1 -49q0 -51 22.5 -86t63.5 -35t77 20.5t65 55.5q8 4 12 -2t0 -14q-35 -47 -87 -81t-110 -34q-53 0 -87 34.5t-34 102.5z M150 301q98 14 144 42t46 63q0 29 -14.5 47t-38.5 18q-47 0 -84 -41t-53 -129zM223 692q0 23 23.5 53.5t58.5 30.5q20 0 20 -28q0 -31 -23.5 -63t-51.5 -32q-27 0 -27 39zM397 692q0 23 22.5 53.5t57.5 30.5q20 0 20 -28q0 -31 -22.5 -63t-50.5 -32q-27 0 -27 39z" />
<glyph unicode="&#xec;" horiz-adv-x="305" d="M106 381q-6 -4 -11 3t-1 13q29 29 78 66t98 61q16 0 17 -18q-27 -47 -52.5 -102.5t-45 -109.5t-32 -104.5t-12.5 -83.5q0 -43 29 -43q23 0 44.5 19.5t49.5 52.5q4 4 10.5 -2t2.5 -14q-37 -45 -79 -82t-79 -37q-53 0 -53 68q0 39 13 93t33.5 109.5t46 106.5t50.5 88 l-56 -42q-35 -26 -51 -42zM160 743q-12 4 0 17q18 16 47 24.5t35 3.5q29 -29 69 -61l76 -61q4 -4 -1 -10.5t-15 -8.5q-51 16 -110.5 42.5t-100.5 53.5z" />
<glyph unicode="&#xed;" horiz-adv-x="305" d="M106 381q-6 -4 -11 3t-1 13q29 29 78 66t98 61q16 0 17 -18q-27 -47 -52.5 -102.5t-45 -109.5t-32 -104.5t-12.5 -83.5q0 -43 29 -43q23 0 44.5 19.5t49.5 52.5q4 4 10.5 -2t2.5 -14q-37 -45 -79 -82t-79 -37q-53 0 -53 68q0 39 13 93t33.5 109.5t46 106.5t50.5 88 l-56 -42q-35 -26 -51 -42zM217 650q0 7 8 16q27 16 70 47.5t71 66.5q10 6 38 -2t46 -16q14 -8 2 -21q-18 -12 -46.5 -26.5t-59.5 -27.5t-62.5 -24.5t-58.5 -19.5q-8 0 -8 7z" />
<glyph unicode="&#xee;" horiz-adv-x="305" d="M106 381q-6 -4 -11 3t-1 13q29 29 78 66t98 61q16 0 17 -18q-27 -47 -52.5 -102.5t-45 -109.5t-32 -104.5t-12.5 -83.5q0 -43 29 -43q23 0 44.5 19.5t49.5 52.5q4 4 10.5 -2t2.5 -14q-37 -45 -79 -82t-79 -37q-53 0 -53 68q0 39 13 93t33.5 109.5t46 106.5t50.5 88 l-56 -42q-35 -26 -51 -42zM123 684q35 20 77 50t73 71q12 10 24 -2q23 -29 60.5 -59.5t76.5 -47.5q10 -10 -10 -20t-45 -6q-37 14 -61.5 29.5t-57.5 39.5l-58.5 -36.5t-66.5 -36.5q-22 0 -12 18z" />
<glyph unicode="&#xef;" horiz-adv-x="305" d="M106 381q-6 -4 -11 3t-1 13q29 29 78 66t98 61q16 0 17 -18q-27 -47 -52.5 -102.5t-45 -109.5t-32 -104.5t-12.5 -83.5q0 -43 29 -43q23 0 44.5 19.5t49.5 52.5q4 4 10.5 -2t2.5 -14q-37 -45 -79 -82t-79 -37q-53 0 -53 68q0 39 13 93t33.5 109.5t46 106.5t50.5 88 l-56 -42q-35 -26 -51 -42zM180 692q0 23 23.5 53.5t58.5 30.5q20 0 20 -28q0 -31 -23.5 -63t-51.5 -32q-27 0 -27 39zM354 692q0 23 22.5 53.5t57.5 30.5q20 0 20 -28q0 -31 -22.5 -63t-50.5 -32q-27 0 -27 39z" />
<glyph unicode="&#xf0;" horiz-adv-x="479" d="M68 137q0 84 28.5 163t75.5 135.5t106.5 79t120.5 -4.5q-12 115 -48 213t-101 203q-86 -61 -158 -127q-10 0 -6 17.5t20 37.5l56 43l71 51l-43 60q-23 31 -49 61q-61 74 -54 160t83 151q8 2 12 -5t0 -15q-84 -106 15 -238q27 -35 49 -68l45 -67l64 40l63 36q4 0 7 -6 t-7 -17q-29 -16 -58 -35l-57 -40q80 -135 117 -263.5t37 -271.5q0 -80 -27 -155.5t-67.5 -136t-91 -98.5t-97.5 -40q-53 0 -79.5 40t-26.5 97zM139 188q0 -47 19.5 -82.5t60.5 -35.5q31 0 63.5 25.5t59.5 68.5t44 100.5t17 118.5q0 57 -19 83t-54 26q-84 0 -137.5 -83.5 t-53.5 -220.5z" />
<glyph unicode="&#xf1;" horiz-adv-x="595" d="M45 18q35 88 73 199t66 219q8 39 -14 39q-20 0 -40.5 -20.5t-43.5 -53.5q-4 -4 -9 2.5t-3 12.5q23 35 61.5 71.5t83.5 36.5q39 0 39 -40q0 -13 -4 -29q-8 -45 -22.5 -95.5t-30.5 -99.5q29 55 67.5 104.5t80.5 84t84 55t79 20.5q25 0 38 -12t13 -29q0 -27 -12 -53 q-43 -78 -72.5 -163t-29.5 -156q0 -51 32 -52q43 0 97 72q6 4 12 0t4 -12q-35 -47 -77 -83t-79 -36q-63 0 -63 82q0 70 24.5 155t67.5 171q8 14 8 28q0 23 -20 23q-76 0 -167 -104.5t-169 -327.5q-4 -12 -22.5 -19.5t-35.5 -7.5q-18 0 -17 11q0 3 1 7zM246 680 q25 29 51.5 50.5t48.5 27.5q16 4 31.5 -2t33 -15.5t40 -17.5t53.5 -8t52.5 15t39.5 42q6 4 13.5 1t5.5 -9q-23 -37 -55.5 -62.5t-90.5 -25.5q-27 0 -46 7t-35 14l-28 14q-13 6 -26 6q-16 -2 -31.5 -14.5t-38.5 -34.5q-22 -4 -18 12z" />
<glyph unicode="&#xf2;" horiz-adv-x="460" d="M61 150q0 57 22.5 122.5t60.5 122t86.5 93t101.5 36.5q55 0 81.5 -36.5t26.5 -96.5q0 -70 -26.5 -139.5t-67.5 -125.5t-89 -91t-89 -35q-49 0 -78 39t-29 111zM127 193q0 -129 82 -130q31 0 60.5 21.5t52 57.5t36 83t13.5 99q0 61 -20.5 97t-67.5 36q-31 0 -59.5 -21.5 t-50 -57.5t-34 -84t-12.5 -101zM272 743q-12 4 0 17q18 16 47 24.5t35 3.5q29 -29 69 -61l76 -61q4 -4 -1 -10.5t-15 -8.5q-51 16 -110.5 42.5t-100.5 53.5z" />
<glyph unicode="&#xf3;" horiz-adv-x="460" d="M61 150q0 57 22.5 122.5t60.5 122t86.5 93t101.5 36.5q55 0 81.5 -36.5t26.5 -96.5q0 -70 -26.5 -139.5t-67.5 -125.5t-89 -91t-89 -35q-49 0 -78 39t-29 111zM127 193q0 -129 82 -130q31 0 60.5 21.5t52 57.5t36 83t13.5 99q0 61 -20.5 97t-67.5 36q-31 0 -59.5 -21.5 t-50 -57.5t-34 -84t-12.5 -101zM279 650q0 7 8 16q27 16 70 47.5t71 66.5q10 6 38 -2t46 -16q14 -8 2 -21q-18 -12 -46.5 -26.5t-59.5 -27.5t-62.5 -24.5t-58.5 -19.5q-8 0 -8 7z" />
<glyph unicode="&#xf4;" horiz-adv-x="460" d="M61 150q0 57 22.5 122.5t60.5 122t86.5 93t101.5 36.5q55 0 81.5 -36.5t26.5 -96.5q0 -70 -26.5 -139.5t-67.5 -125.5t-89 -91t-89 -35q-49 0 -78 39t-29 111zM127 193q0 -129 82 -130q31 0 60.5 21.5t52 57.5t36 83t13.5 99q0 61 -20.5 97t-67.5 36q-31 0 -59.5 -21.5 t-50 -57.5t-34 -84t-12.5 -101zM231 684q35 20 77 50t73 71q12 10 24 -2q23 -29 60.5 -59.5t76.5 -47.5q10 -10 -10 -20t-45 -6q-37 14 -61.5 29.5t-57.5 39.5l-58.5 -36.5t-66.5 -36.5q-22 0 -12 18z" />
<glyph unicode="&#xf5;" horiz-adv-x="460" d="M61 150q0 57 22.5 122.5t60.5 122t86.5 93t101.5 36.5q55 0 81.5 -36.5t26.5 -96.5q0 -70 -26.5 -139.5t-67.5 -125.5t-89 -91t-89 -35q-49 0 -78 39t-29 111zM127 193q0 -129 82 -130q31 0 60.5 21.5t52 57.5t36 83t13.5 99q0 61 -20.5 97t-67.5 36q-31 0 -59.5 -21.5 t-50 -57.5t-34 -84t-12.5 -101zM188 680q25 29 51.5 50.5t48.5 27.5q16 4 31.5 -2t33 -15.5t40 -17.5t53.5 -8t52.5 15t39.5 42q6 4 13.5 1t5.5 -9q-23 -37 -55.5 -62.5t-90.5 -25.5q-27 0 -46 7t-35 14l-28 14q-13 6 -26 6q-16 -2 -31.5 -14.5t-38.5 -34.5q-22 -4 -18 12z " />
<glyph unicode="&#xf6;" horiz-adv-x="460" d="M61 150q0 57 22.5 122.5t60.5 122t86.5 93t101.5 36.5q55 0 81.5 -36.5t26.5 -96.5q0 -70 -26.5 -139.5t-67.5 -125.5t-89 -91t-89 -35q-49 0 -78 39t-29 111zM127 193q0 -129 82 -130q31 0 60.5 21.5t52 57.5t36 83t13.5 99q0 61 -20.5 97t-67.5 36q-31 0 -59.5 -21.5 t-50 -57.5t-34 -84t-12.5 -101zM223 692q0 23 23.5 53.5t58.5 30.5q20 0 20 -28q0 -31 -23.5 -63t-51.5 -32q-27 0 -27 39zM397 692q0 23 22.5 53.5t57.5 30.5q20 0 20 -28q0 -31 -22.5 -63t-50.5 -32q-27 0 -27 39z" />
<glyph unicode="&#xf7;" horiz-adv-x="616" d="M112.5 293.5q10.5 17.5 59.5 23.5q31 0 76 1t96 1t104.5 -1t102.5 -1q16 -4 2 -21t-37 -20q-94 0 -198.5 -1t-202.5 -3q-13 4 -2.5 21.5zM256 168q0 14 13.5 30.5t27.5 16.5q10 0 21.5 -14.5t11.5 -24.5q0 -16 -14.5 -30.5t-26.5 -14.5q-10 0 -21.5 13.5t-11.5 23.5z M342 416q0 14 12.5 29.5t26.5 15.5q12 0 23.5 -13.5t11.5 -23.5q0 -16 -14.5 -30.5t-26.5 -14.5q-10 0 -21.5 13.5t-11.5 23.5z" />
<glyph unicode="&#xf8;" horiz-adv-x="460" d="M20 -29l31 45l29 41q-18 33 -19 93q0 57 22.5 122.5t60.5 122t86.5 93t101.5 36.5q41 0 67 -22q29 35 64 82q12 10 24.5 7t6.5 -18q-20 -29 -39 -51t-35 -45q20 -33 20 -86q0 -70 -26.5 -139.5t-67.5 -125.5t-88 -91t-90 -35t-70 31l-21 -33l-24 -33q-12 -14 -24.5 -10 t-8.5 16zM129 193q0 -16 1 -32t3 -28l52 74l47 65l51 70l63 86q-23 29 -61 29q-31 0 -59.5 -21.5t-50 -57.5t-34 -84t-12.5 -101zM145 100q20 -37 64 -37q33 0 61.5 21.5t51 57.5t36 83t13.5 99q0 39 -11 73l-57 -75l-51 -70l-50 -72z" />
<glyph unicode="&#xf9;" horiz-adv-x="612" d="M66 92q0 33 9 77t24.5 93t38 98.5t50.5 92.5l-47 -36q-25 -19 -41 -36q-6 -4 -10 3t-2 13q14 14 36.5 33t48.5 37l53.5 35.5t52.5 29.5q2 1 3 1q6 0 10 -5q5 -6 3 -14q-66 -84 -105.5 -185.5t-39.5 -193.5q0 -59 34 -59q27 0 67 35.5t83 94t87 132.5t81 149 q6 14 23.5 25.5t37.5 11.5q27 0 19 -16q-29 -53 -51.5 -99.5t-37 -91.5t-21.5 -92t-7 -102q0 -66 37 -66q16 0 36.5 17.5t41.5 46.5q6 4 12 0q4 -2 4 -7q0 -3 -2 -8q-29 -43 -67 -74.5t-72 -31.5q-27 0 -45.5 26.5t-18.5 71.5q0 49 9.5 105.5t29.5 113.5q-39 -76 -82 -134 t-83 -99t-74.5 -62.5t-57.5 -21.5q-27 0 -47 25.5t-20 66.5zM346 743q-12 4 0 17q18 16 47 24.5t35 3.5q29 -29 69 -61l76 -61q4 -4 -1 -10.5t-15 -8.5q-51 16 -110.5 42.5t-100.5 53.5z" />
<glyph unicode="&#xfa;" horiz-adv-x="612" d="M66 92q0 33 9 77t24.5 93t38 98.5t50.5 92.5l-47 -36q-25 -19 -41 -36q-6 -4 -10 3t-2 13q14 14 36.5 33t48.5 37l53.5 35.5t52.5 29.5q2 1 3 1q6 0 10 -5q5 -6 3 -14q-66 -84 -105.5 -185.5t-39.5 -193.5q0 -59 34 -59q27 0 67 35.5t83 94t87 132.5t81 149 q6 14 23.5 25.5t37.5 11.5q27 0 19 -16q-29 -53 -51.5 -99.5t-37 -91.5t-21.5 -92t-7 -102q0 -66 37 -66q16 0 36.5 17.5t41.5 46.5q6 4 12 0q4 -2 4 -7q0 -3 -2 -8q-29 -43 -67 -74.5t-72 -31.5q-27 0 -45.5 26.5t-18.5 71.5q0 49 9.5 105.5t29.5 113.5q-39 -76 -82 -134 t-83 -99t-74.5 -62.5t-57.5 -21.5q-27 0 -47 25.5t-20 66.5zM373 650q0 7 8 16q27 16 70 47.5t71 66.5q10 6 38 -2t46 -16q14 -8 2 -21q-18 -12 -46.5 -26.5t-59.5 -27.5t-62.5 -24.5t-58.5 -19.5q-8 0 -8 7z" />
<glyph unicode="&#xfb;" horiz-adv-x="612" d="M66 92q0 33 9 77t24.5 93t38 98.5t50.5 92.5l-47 -36q-25 -19 -41 -36q-6 -4 -10 3t-2 13q14 14 36.5 33t48.5 37l53.5 35.5t52.5 29.5q2 1 3 1q6 0 10 -5q5 -6 3 -14q-66 -84 -105.5 -185.5t-39.5 -193.5q0 -59 34 -59q27 0 67 35.5t83 94t87 132.5t81 149 q6 14 23.5 25.5t37.5 11.5q27 0 19 -16q-29 -53 -51.5 -99.5t-37 -91.5t-21.5 -92t-7 -102q0 -66 37 -66q16 0 36.5 17.5t41.5 46.5q6 4 12 0q4 -2 4 -7q0 -3 -2 -8q-29 -43 -67 -74.5t-72 -31.5q-27 0 -45.5 26.5t-18.5 71.5q0 49 9.5 105.5t29.5 113.5q-39 -76 -82 -134 t-83 -99t-74.5 -62.5t-57.5 -21.5q-27 0 -47 25.5t-20 66.5zM295 684q35 20 77 50t73 71q12 10 24 -2q23 -29 60.5 -59.5t76.5 -47.5q10 -10 -10 -20t-45 -6q-37 14 -61.5 29.5t-57.5 39.5l-58.5 -36.5t-66.5 -36.5q-22 0 -12 18z" />
<glyph unicode="&#xfc;" horiz-adv-x="612" d="M66 92q0 33 9 77t24.5 93t38 98.5t50.5 92.5l-47 -36q-25 -19 -41 -36q-6 -4 -10 3t-2 13q14 14 36.5 33t48.5 37l53.5 35.5t52.5 29.5q2 1 3 1q6 0 10 -5q5 -6 3 -14q-66 -84 -105.5 -185.5t-39.5 -193.5q0 -59 34 -59q27 0 67 35.5t83 94t87 132.5t81 149 q6 14 23.5 25.5t37.5 11.5q27 0 19 -16q-29 -53 -51.5 -99.5t-37 -91.5t-21.5 -92t-7 -102q0 -66 37 -66q16 0 36.5 17.5t41.5 46.5q6 4 12 0q4 -2 4 -7q0 -3 -2 -8q-29 -43 -67 -74.5t-72 -31.5q-27 0 -45.5 26.5t-18.5 71.5q0 49 9.5 105.5t29.5 113.5q-39 -76 -82 -134 t-83 -99t-74.5 -62.5t-57.5 -21.5q-27 0 -47 25.5t-20 66.5zM309 692q0 23 23.5 53.5t58.5 30.5q20 0 20 -28q0 -31 -23.5 -63t-51.5 -32q-27 0 -27 39zM483 692q0 23 22.5 53.5t57.5 30.5q20 0 20 -28q0 -31 -22.5 -63t-50.5 -32q-27 0 -27 39z" />
<glyph unicode="&#xfd;" horiz-adv-x="573" d="M385 650q0 7 8 16q27 16 70 47.5t71 66.5q10 6 38 -2t46 -16q14 -8 2 -21q-18 -12 -46.5 -26.5t-59.5 -27.5t-62.5 -24.5t-58.5 -19.5q-8 0 -8 7zM-362 -311q0 37 19 77.5t60 71.5q6 4 11.5 -4t1.5 -12q-33 -39 -33 -88q0 -86 49 -139.5t150 -53.5q72 0 132 22.5 t114.5 80t104.5 154t103 241.5l44 125l44 119q-78 -123 -163 -201t-150 -84q-27 0 -39 24.5t-12 67.5q0 37 8 81t23.5 91t39 95.5t52.5 93.5l-47 -36q-25 -19 -41 -36q-6 -4 -11.5 3t-1.5 13q29 29 78 66t96 61q20 0 17 -18q-31 -41 -56.5 -91.5t-44 -100.5t-29 -99 t-10.5 -88q0 -57 39 -57q33 0 79 44t92 106.5t84 133t57 123.5q2 6 10 13.5t19.5 15.5t22.5 13t17 5q15 0 15 -9q0 -33 -15.5 -78t-40.5 -98.5t-32 -75.5l-93 -249q-55 -143 -117.5 -240.5t-131 -157.5t-142 -87t-151.5 -27q-109 0 -165 54.5t-56 134.5z" />
<glyph unicode="&#xfe;" horiz-adv-x="534" d="M-70 -469q0 86 35 222t88 298q-10 18 -16 35q-2 8 9 11t26 9l76 209l81 208l81 195l75 171q12 29 6 39t-20 4q-14 -8 -31.5 -23.5t-34.5 -34.5q-6 -2 -11 4.5t-1 12.5q12 14 31.5 32.5t42 35t43 28.5t36.5 12t22.5 -16t-5.5 -45l-124 -292l-126 -304q57 86 112.5 133 t98.5 47q41 0 65.5 -36.5t24.5 -94.5q0 -80 -27.5 -150.5t-76 -125t-114 -86t-142.5 -31.5q-35 0 -58 14q-35 -102 -63.5 -218t-28.5 -216q0 -45 45 -39q35 6 62 25q8 2 9 -7.5t-3 -15.5q-25 -14 -68 -28.5t-82 -14.5q-37 0 -37 33zM123 88q10 -23 29.5 -36t52.5 -13 q51 0 95 22.5t76 62.5t49 94t17 120q0 49 -18 81t-53 32q-47 0 -114 -84t-120 -238q-4 -10 -7 -20.5t-7 -20.5z" />
<glyph unicode="&#xff;" horiz-adv-x="573" d="M305 692q0 23 23.5 53.5t58.5 30.5q20 0 20 -28q0 -31 -23.5 -63t-51.5 -32q-27 0 -27 39zM479 692q0 23 22.5 53.5t57.5 30.5q20 0 20 -28q0 -31 -22.5 -63t-50.5 -32q-27 0 -27 39zM-362 -311q0 37 19 77.5t60 71.5q6 4 11.5 -4t1.5 -12q-33 -39 -33 -88 q0 -86 49 -139.5t150 -53.5q72 0 132 22.5t114.5 80t104.5 154t103 241.5l44 125l44 119q-78 -123 -163 -201t-150 -84q-27 0 -39 24.5t-12 67.5q0 37 8 81t23.5 91t39 95.5t52.5 93.5l-47 -36q-25 -19 -41 -36q-6 -4 -11.5 3t-1.5 13q29 29 78 66t96 61q20 0 17 -18 q-31 -41 -56.5 -91.5t-44 -100.5t-29 -99t-10.5 -88q0 -57 39 -57q33 0 79 44t92 106.5t84 133t57 123.5q2 6 10 13.5t19.5 15.5t22.5 13t17 5q15 0 15 -9q0 -33 -15.5 -78t-40.5 -98.5t-32 -75.5l-93 -249q-55 -143 -117.5 -240.5t-131 -157.5t-142 -87t-151.5 -27 q-109 0 -165 54.5t-56 134.5z" />
<glyph unicode="&#x131;" horiz-adv-x="305" d="M106 381q-6 -4 -11 3t-1 13q29 29 78 66t98 61q16 0 17 -18q-27 -47 -52.5 -102.5t-45 -109.5t-32 -104.5t-12.5 -83.5q0 -43 29 -43q23 0 44.5 19.5t49.5 52.5q4 4 10.5 -2t2.5 -14q-37 -45 -79 -82t-79 -37q-53 0 -53 68q0 39 13 93t33.5 109.5t46 106.5t50.5 88 l-56 -42q-35 -26 -51 -42z" />
<glyph unicode="&#x152;" horiz-adv-x="1693" d="M143 475q0 156 59.5 307.5t164 271.5t245 192.5t301.5 72.5q94 0 171 -35t130 -98q53 59 137.5 96t190.5 37q49 0 95 -9.5t83 -24.5t58.5 -34.5t21.5 -40.5q0 -16 -7 -37.5t-16.5 -44t-19.5 -42t-16 -27.5q-6 -4 -12.5 -1t-4.5 11q12 23 18.5 50.5t-9.5 54.5 q-23 37 -86.5 73.5t-145.5 36.5q-68 0 -117 -18.5t-82.5 -49t-50 -68.5t-16.5 -77q0 -72 48 -122t165 -85q6 -4 1 -13t-15.5 -19.5t-23.5 -18.5t-21 -10q-231 10 -357.5 -99.5t-126.5 -330.5q0 -72 21.5 -133.5t61.5 -106.5t96.5 -70.5t127.5 -25.5q168 0 274.5 79 t153.5 251q6 10 13.5 6t9.5 -17q-27 -115 -59.5 -190.5t-61.5 -87.5q-72 -33 -173 -55.5t-206 -22.5q-84 0 -148.5 25.5t-109.5 66.5q-76 -45 -156.5 -68.5t-164.5 -23.5q-109 0 -192 39t-138 104.5t-83 151.5t-28 180zM229 543q0 -106 30 -195.5t86 -153t138 -98.5t187 -35 q111 0 213 54q-37 43 -56.5 97t-19.5 112q0 98 36 185t100.5 154.5t153.5 114.5t195 66q-66 35 -102.5 82t-36.5 102q0 31 10 66q-53 76 -133 115.5t-184 39.5q-137 0 -251 -55t-195 -151.5t-126 -224.5t-45 -275z" />
<glyph unicode="&#x153;" horiz-adv-x="706" d="M61 147q0 57 22.5 123t59.5 122.5t86.5 93t102.5 36.5t74.5 -36.5t23.5 -92.5q37 55 84 91t100 36q39 0 66 -26.5t27 -61.5q0 -29 -24 -53.5t-61.5 -45t-88 -36.5t-105.5 -31q-4 -20 -4 -43v-49q0 -53 22.5 -87t63.5 -34t77 20.5t64 55.5q8 4 12.5 -3t0.5 -15 q-35 -47 -87.5 -81t-109.5 -34q-53 0 -86 33.5t-35 97.5q-41 -57 -89 -92t-89 -35q-49 0 -78 37.5t-29 109.5zM127 190q0 -129 80 -129q33 0 62.5 21.5t52 58.5t36 84t13.5 97q0 61 -20.5 98t-67.5 37q-31 0 -59.5 -21.5t-50 -58.5t-34 -85.5t-12.5 -101.5zM434 297 q190 31 191 106q0 27 -14.5 45.5t-39.5 18.5q-47 0 -84 -41t-53 -129z" />
<glyph unicode="&#x178;" horiz-adv-x="1355" d="M14 94q0 78 28 151.5t82 132t135 99.5t190 53q10 -2 9 -10t-12 -18q-94 -12 -160.5 -44t-109.5 -79t-62.5 -106.5t-19.5 -127.5q0 -156 90 -247t269 -91q131 0 249.5 45.5t233.5 152t230.5 281.5t242.5 433q-57 -94 -128 -175t-144.5 -141.5t-146 -94.5t-134.5 -34 q-92 0 -130 53.5t-24 147.5q16 113 51 225l66 218q33 102 47.5 167.5t12.5 104.5t-16.5 53t-41.5 14q-25 0 -51.5 -12t-51 -30.5t-46 -41t-33.5 -45.5q-8 -8 -15.5 -0.5t-5.5 17.5q14 23 41 53.5t63 57t75 45t77 18.5q37 0 58.5 -18.5t28 -61.5t-6 -111.5t-45.5 -169.5 l-73 -226q-33 -101 -50 -204q-12 -88 12.5 -133t104.5 -45q178 0 370.5 235.5t424.5 700.5q39 33 69 33q23 0 17 -29q-211 -449 -389 -747.5t-344 -478t-330 -253t-346 -73.5q-86 0 -153.5 28.5t-114 78t-70 113.5t-23.5 136zM1188 1401q0 20 20.5 48t53.5 28q18 0 18 -27 q0 -29 -20.5 -56.5t-49.5 -27.5q-22 0 -22 35zM1343 1401q0 20 20.5 48t51.5 28q18 0 19 -27q0 -29 -20.5 -56.5t-45.5 -27.5t-25 35z" />
<glyph unicode="&#x2c6;" horiz-adv-x="401" d="M45 684q35 20 77 50t73 71q12 10 24 -2q23 -29 60.5 -59.5t76.5 -47.5q10 -10 -10 -20t-45 -6q-37 14 -61.5 29.5t-57.5 39.5l-58.5 -36.5t-66.5 -36.5q-22 0 -12 18z" />
<glyph unicode="&#x2da;" horiz-adv-x="239" d="M123 768q-25 0 -38 -16.5t-13 -44.5q0 -23 11 -36.5t34 -13.5t37 17.5t14 44.5q0 49 -45 49zM96 635q-27 0 -41 16.5t-14 40.5q0 41 28.5 71t73.5 30q29 0 42.5 -17.5t13.5 -42.5q0 -39 -29 -68.5t-74 -29.5z" />
<glyph unicode="&#x2dc;" horiz-adv-x="454" d="M43 680q25 29 51.5 50.5t48.5 27.5q16 4 31.5 -2t33 -15.5t40 -17.5t53.5 -8t52.5 15t39.5 42q6 4 13.5 1t5.5 -9q-23 -37 -55.5 -62.5t-90.5 -25.5q-27 0 -46 7t-35 14l-28 14q-13 6 -26 6q-16 -2 -31.5 -14.5t-38.5 -34.5q-22 -4 -18 12z" />
<glyph unicode="&#x2000;" horiz-adv-x="782" />
<glyph unicode="&#x2001;" horiz-adv-x="1566" />
<glyph unicode="&#x2002;" horiz-adv-x="782" />
<glyph unicode="&#x2003;" horiz-adv-x="1566" />
<glyph unicode="&#x2004;" horiz-adv-x="522" />
<glyph unicode="&#x2005;" horiz-adv-x="391" />
<glyph unicode="&#x2006;" horiz-adv-x="260" />
<glyph unicode="&#x2007;" horiz-adv-x="260" />
<glyph unicode="&#x2008;" horiz-adv-x="194" />
<glyph unicode="&#x2009;" horiz-adv-x="313" />
<glyph unicode="&#x200a;" horiz-adv-x="86" />
<glyph unicode="&#x2010;" horiz-adv-x="501" d="M80 283q-14 4 0 21.5t41 23.5q27 2 68.5 6t89 7t93.5 5t81 2q8 -2 6 -10t-9.5 -17.5t-19.5 -17.5t-27 -10q-37 0 -82 -1t-89 -3t-84.5 -3t-67.5 -3z" />
<glyph unicode="&#x2011;" horiz-adv-x="501" d="M80 283q-14 4 0 21.5t41 23.5q27 2 68.5 6t89 7t93.5 5t81 2q8 -2 6 -10t-9.5 -17.5t-19.5 -17.5t-27 -10q-37 0 -82 -1t-89 -3t-84.5 -3t-67.5 -3z" />
<glyph unicode="&#x2012;" horiz-adv-x="501" d="M80 283q-14 4 0 21.5t41 23.5q27 2 68.5 6t89 7t93.5 5t81 2q8 -2 6 -10t-9.5 -17.5t-19.5 -17.5t-27 -10q-37 0 -82 -1t-89 -3t-84.5 -3t-67.5 -3z" />
<glyph unicode="&#x2013;" horiz-adv-x="1024" d="M43 314.5q2 13.5 25 15.5q33 2 104.5 4t160.5 3t187 1h189h161h107q8 -4 5 -10t-10 -13.5t-19.5 -12.5t-22.5 -5q-53 2 -127 3t-159 2l-174 2q-89 1 -170 0t-147.5 -2t-105.5 -3q-6 2 -4 15.5z" />
<glyph unicode="&#x2014;" horiz-adv-x="2048" d="M43 314.5q2 13.5 25 15.5q25 2 115.5 4t223 3t294.5 1h331h331h296h224h118q8 -4 5 -10t-10 -13.5t-19.5 -12.5t-22.5 -5q-39 2 -135.5 3t-228.5 2t-289.5 1t-319.5 1t-316.5 0t-282.5 -1t-217 -1t-118 -3q-6 2 -4 15.5z" />
<glyph unicode="&#x2018;" horiz-adv-x="178" d="M113 604q0 63 48 132t120 112q8 0 10 -7t-4 -16q-45 -29 -74 -71.5t-29 -89.5q0 -43 21 -56q6 -6 -1 -18t-19.5 -24.5t-26 -23t-21.5 -10.5q-10 4 -17 25.5t-7 46.5z" />
<glyph unicode="&#x2019;" horiz-adv-x="178" d="M102 539.5q-2 7.5 4 15.5q45 29 74 72t29 90q0 43 -21 55q-6 6 1.5 18.5t19.5 24.5t25.5 22.5t21.5 10.5q10 -4 17.5 -25.5t7.5 -46.5q0 -63 -48.5 -132t-119.5 -112q-9 0 -11 7.5z" />
<glyph unicode="&#x201a;" horiz-adv-x="229" d="M0 -173q-2 7 4 15q45 29 73.5 72t28.5 90q0 43 -20 55q-6 6 1 18.5t19.5 25t25.5 22.5t22 10q10 -4 17 -25.5t7 -46.5q0 -63 -48 -131.5t-120 -111.5q-8 0 -10 7z" />
<glyph unicode="&#x201c;" horiz-adv-x="342" d="M113 604q0 63 48 132t120 112q8 0 10 -7t-4 -16q-45 -29 -74 -71.5t-29 -89.5q0 -43 21 -56q6 -6 -1 -18t-19.5 -24.5t-26 -23t-21.5 -10.5q-10 4 -17 25.5t-7 46.5zM276 604q0 63 48.5 132t119.5 112q8 0 10.5 -7t-3.5 -16q-45 -29 -74 -71.5t-29 -89.5q0 -43 21 -56 q6 -6 -1.5 -18t-19.5 -24.5t-25.5 -23t-21.5 -10.5q-10 4 -17.5 25.5t-7.5 46.5z" />
<glyph unicode="&#x201d;" horiz-adv-x="342" d="M102 539.5q-2 7.5 4 15.5q45 29 74 72t29 90q0 43 -21 55q-6 6 1.5 18.5t19.5 24.5t25.5 22.5t21.5 10.5q10 -4 17.5 -25.5t7.5 -46.5q0 -63 -48.5 -132t-119.5 -112q-9 0 -11 7.5zM266 539.5q-2 7.5 4 15.5q45 29 74 72t29 90q0 43 -21 55q-6 6 1 18.5t19.5 24.5 t26 22.5t21.5 10.5q10 -4 17 -25.5t7 -46.5q0 -63 -48 -132t-120 -112q-8 0 -10 7.5z" />
<glyph unicode="&#x201e;" horiz-adv-x="393" d="M0 -173q-2 7 4 15q45 29 73.5 72t28.5 90q0 43 -20 55q-6 6 1 18.5t19.5 25t25.5 22.5t22 10q10 -4 17 -25.5t7 -46.5q0 -63 -48 -131.5t-120 -111.5q-8 0 -10 7zM164 -173q-2 7 4 15q45 29 73.5 72t28.5 90q0 43 -20 55q-6 6 1 18.5t19.5 25t25.5 22.5t21 10 q10 -4 17.5 -25.5t7.5 -46.5q0 -63 -48 -131.5t-120 -111.5q-8 0 -10 7z" />
<glyph unicode="&#x2022;" horiz-adv-x="423" d="M113 285q0 53 40 96t105 43q41 0 67.5 -25.5t26.5 -66.5q0 -59 -41 -102.5t-106 -43.5q-47 0 -69.5 27t-22.5 72z" />
<glyph unicode="&#x2026;" horiz-adv-x="770" d="M61 45q0 12 8.5 26.5t22.5 29t30.5 23.5t35.5 9q20 0 20 -31q0 -16 -9 -33.5t-22.5 -33t-30 -25.5t-30.5 -10q-25 0 -25 45zM332 45q0 12 8 26.5t22.5 29t31 23.5t34.5 9q20 0 21 -31q0 -16 -9.5 -33.5t-23 -33t-29.5 -25.5t-31 -10q-24 0 -24 45zM602 45q0 12 8 26.5 t22.5 29t31 23.5t34.5 9q20 0 21 -31q0 -16 -9.5 -33.5t-22.5 -33t-29.5 -25.5t-30.5 -10q-25 0 -25 45z" />
<glyph unicode="&#x202f;" horiz-adv-x="313" />
<glyph unicode="&#x2039;" horiz-adv-x="387" d="M47 213q-18 16 4 35q78 70 167 139.5t173 126.5q14 4 18.5 -10.5t-12.5 -26.5q-29 -18 -68 -49l-81 -62l-78 -63q-37 -31 -57 -51q43 -35 90 -84t76 -90q2 -8 -0.5 -22.5t-8.5 -27t-15 -19.5t-22 -3q-39 59 -91 115.5t-95 91.5z" />
<glyph unicode="&#x203a;" horiz-adv-x="360" d="M-41 15.5q-6 13.5 10 29.5q25 23 61 52l74 62l76 60l66 51q-23 16 -46.5 41t-47 53.5t-42.5 57.5l-34 51q-4 8 4 18.5t20.5 17.5t24.5 9t20 -4q31 -57 77 -114.5t91 -92.5q6 -6 5 -17t-9 -18q-84 -57 -174 -129.5t-158 -136.5q-12 -4 -18 9.5z" />
<glyph unicode="&#x205f;" horiz-adv-x="391" />
<glyph unicode="&#x20ac;" horiz-adv-x="737" d="M4 260q6 8 19.5 16.5t32 15.5t34.5 9h21q2 27 12 55q-18 -4 -37.5 -6t-40.5 -6q-10 2 -5 10t19.5 16.5t33 14.5t34.5 8q6 0 10 2q20 51 55 96.5t80 79t100.5 52t119.5 18.5q66 0 105.5 -24.5t39.5 -51.5q0 -18 -11.5 -55t-21.5 -64q-4 -4 -12 0.5t-6 14.5q18 45 -4 84 q-16 27 -51 42t-78 15q-94 0 -161 -52t-95 -153q53 2 110.5 2t134.5 -2q10 -4 8.5 -11t-20.5 -11q-66 0 -124 -2t-116 -8q-4 -14 -5 -28.5t-3 -31.5q47 2 100.5 1t123.5 -1q10 -4 8 -12t-19 -10q-59 0 -111.5 -3.5t-103.5 -7.5v-8q0 -117 42 -176t114 -59q51 0 89 29.5 t62 97.5q6 6 14.5 5t8.5 -11q-16 -49 -33.5 -88t-36.5 -46q-20 -8 -55 -12t-70 -4q-100 0 -155.5 64.5t-55.5 168.5q0 20 2 31q-25 -4 -48 -7t-50 -7q-10 2 -4 10z" />
<glyph unicode="&#x2122;" horiz-adv-x="796" d="M103.5 615.5q5.5 7.5 21.5 9.5q25 4 60.5 7t74.5 5t78 3t70 1q8 -2 -0.5 -13.5t-18.5 -15.5h-100q-18 -35 -32.5 -71.5t-31.5 -87.5q-16 -45 -16 -82q-2 -8 -18.5 -15.5t-32.5 -7.5q-12 0 -8 12q16 63 40.5 124t53.5 110q4 4 10 8l12 8q-41 0 -81 -1t-74 -3 q-13 2 -7.5 9.5zM323.5 339.5q-4.5 20.5 4.5 31.5q47 63 112.5 137t126.5 129q4 4 9.5 0t5.5 -8q-16 -53 -25.5 -103.5t-15.5 -101.5q37 55 85 113.5t101 103.5q6 2 10 -2t0 -8q-20 -41 -32.5 -100.5t-12.5 -112.5q0 -23 5 -30t18 -7q8 0 20 8q4 4 7 -1t1 -9 q-8 -10 -25.5 -20.5t-33.5 -10.5t-24.5 10.5t-8.5 38.5q0 49 7.5 92t19.5 82q-43 -49 -78 -95t-72 -101l-15 -19q-7 -8 -15 -8t-9 8q6 61 17.5 120t25.5 102q-49 -47 -99 -111t-95 -143q-10 -5 -14.5 15.5z" />
<glyph unicode="&#xe000;" horiz-adv-x="520" d="M0 520h520v-520h-520v520z" />
<glyph unicode="&#xfb01;" horiz-adv-x="608" d="M-596 -399q0 20 8 41.5t21 38.5q6 4 11 0.5t5 -9.5q-8 -18 -6 -39.5t17.5 -41t45 -33t76.5 -13.5q74 0 145.5 30t144.5 124t151.5 270t169.5 469q4 10 6 17.5t6 17.5l-71 -8q-36 -4 -68 -10q-10 4 -5 12t18 16.5t30.5 15.5t33.5 7q18 2 36 3t38 1q72 221 158 400.5 t179 307.5t193.5 197.5t202.5 69.5q39 0 65.5 -16.5t40 -43t13.5 -58.5t-14 -62q-12 -12 -21 6q-4 39 -37.5 70.5t-105.5 31.5q-78 0 -148.5 -41t-143.5 -143.5t-147.5 -276.5t-160.5 -440q39 2 82 2t94 2q66 2 93.5 4t37.5 4q12 -4 4 -18q-6 -6 -17 -25l-25 -41l-25.5 -46 t-20.5 -44q-29 -72 -47 -136t-18 -108q0 -43 30 -43q23 0 43.5 19.5t48.5 52.5q4 4 10.5 -2t2.5 -14q-37 -45 -79 -82t-77 -37q-55 0 -55 68q0 39 12 93t33.5 112.5t50.5 115.5t61 103q-37 0 -104.5 -2.5t-144.5 -8.5q-4 -10 -6.5 -20t-6.5 -21q-84 -268 -173 -448 t-181 -290t-187.5 -156t-193.5 -46q-70 0 -99.5 31t-29.5 70zM574 647q1 12 8 21q29 39 64.5 77.5t82.5 79.5q6 2 12.5 -3t1.5 -9q-43 -39 -81.5 -93t-67.5 -108q-6 -6 -11 -1t-7.5 14.5t-1.5 21.5z" />
<glyph unicode="&#xfb02;" horiz-adv-x="593" d="M-598 -399q0 20 8 41.5t21 38.5q6 4 11 0.5t5 -9.5q-10 -18 -8 -39.5t17.5 -41t46 -33t77.5 -13.5q74 0 145.5 30t144.5 125t151.5 270t168.5 468l13 37q-37 -4 -72 -9t-68 -11q-10 2 -5 9t18.5 15t32 15.5t34.5 9.5t34 3t36 3q309 961 674 960q43 0 70.5 -17t41.5 -46 q57 53 114.5 84t111.5 31q53 0 69.5 -49.5t-14.5 -104.5q-4 -4 -10 -1t-6 11q2 25 -19.5 41.5t-66.5 16.5q-88 0 -174 -74t-165 -191.5t-147.5 -263t-119 -290t-79 -272.5t-28.5 -208q0 -61 33 -61q25 0 48 20.5t54 61.5q6 4 12 -1t2 -16q-41 -61 -89 -101t-83 -40 q-27 0 -43 21.5t-16 56.5q0 66 25.5 174t72.5 240l-100 -5q-51 -2 -105 -6q-4 -10 -6 -20t-6 -21q-84 -268 -172 -448t-180 -290t-187.5 -156t-193.5 -46q-70 0 -99.5 31t-29.5 70zM287 512q47 2 98 2h104q41 111 93.5 230.5t113 232.5t128 214t137.5 175q-41 41 -119 41 q-74 0 -135.5 -32t-125 -128t-133 -271t-161.5 -464z" />
<glyph unicode="&#xfb03;" horiz-adv-x="944" d="M709 68q0 39 13 93t33.5 109.5t46 106.5t50.5 88l-56 -42q-34 -26 -51 -42q-6 -4 -11 3t-1 13q29 29 78 66t98 61q16 0 17 -18q-27 -47 -52.5 -102.5t-45 -109.5t-32 -104.5t-12.5 -83.5q0 -43 29 -43q23 0 44.5 19.5t49.5 52.5q4 4 10.5 -2t2.5 -14q-37 -45 -79 -82 t-79 -37q-53 0 -53 68zM909 647q0 12 6 21q53 74 150 157q2 1 3 1l9 -4q4 -3 4 -6q0 -2 -2 -3q-43 -39 -82 -93t-67 -108q-3 -3 -7 -3q-3 0 -4 2q-5 5 -7.5 14.5t-2.5 21.5zM-277 -395q0 18 8 39.5t21 38.5q6 6 11 2t5 -11q-8 -16 -6 -37.5t17.5 -41t45 -33t76.5 -13.5 q49 0 97.5 12.5t96.5 46.5t96 95t99.5 160.5t106.5 241t115 335.5q4 10 6 19.5t6 19.5q-35 -4 -70 -9t-69 -13q-10 2 -5 10t18 16.5t31.5 15.5t34.5 9t34 3t36 3q74 221 159 400.5t179 307.5t194.5 197.5t202.5 69.5q39 0 65.5 -16.5t40 -43t13.5 -58.5t-14 -62 q-4 -6 -10.5 -4t-10.5 8q-4 41 -37.5 72.5t-105.5 31.5q-78 0 -148.5 -41t-143.5 -143.5t-147.5 -276.5t-160.5 -440q47 2 99 2h108q10 -4 9 -11t-20 -11l-102 -4q-51 -2 -104 -7q-6 -23 -15 -41q-84 -268 -172 -449t-180 -291t-187.5 -156t-193.5 -46q-70 0 -99.5 31 t-29.5 72zM-596 -395q0 18 8 39.5t21 38.5q6 6 11 2t5 -11q-8 -16 -6 -37.5t17.5 -41t45 -33t76.5 -13.5q49 0 97.5 12.5t96.5 46.5t96 95t99.5 160.5t106.5 241t115 335.5q4 10 6 19.5t6 19.5q-35 -4 -70 -9t-69 -13q-10 2 -5 10t18 16.5t31.5 15.5t34.5 9t34 3t36 3 q74 221 159 400.5t179 307.5t194.5 197.5t202.5 69.5q39 0 65.5 -16.5t40 -43t13.5 -58.5t-14 -62q-4 -6 -10.5 -4t-10.5 8q-4 41 -37.5 72.5t-105.5 31.5q-78 0 -148.5 -41t-143.5 -143.5t-147.5 -276.5t-160.5 -440q47 2 99 2h108q10 -4 9 -11t-20 -11l-102 -4 q-51 -2 -104 -7q-6 -23 -15 -41q-84 -268 -172 -449t-180 -291t-187.5 -156t-193.5 -46q-70 0 -99.5 31t-29.5 72z" />
<glyph unicode="&#xfb04;" horiz-adv-x="913" d="M700 80q0 57 20.5 148t57.5 204t89.5 237t113.5 244.5t130 231t141.5 194.5t146.5 133.5t145 49.5q53 0 69 -49q5 -17 5 -36q0 -33 -18 -69q-4 -4 -10.5 0t-8.5 10q4 25 -17.5 41.5t-66.5 16.5q-88 0 -174 -74t-166 -191.5t-148.5 -263t-118.5 -290t-79 -272.5t-29 -208 q0 -61 35 -61q25 0 48.5 20.5t54.5 61.5q6 4 11 -1t3 -14q-41 -63 -90 -103t-84 -40q-27 0 -43.5 21.5t-16.5 58.5zM-277 -395q0 18 8 39.5t21 38.5q6 6 11 2t5 -11q-8 -16 -6 -37.5t17.5 -41t45 -33t76.5 -13.5q49 0 97.5 12.5t96.5 46.5t96 95t99.5 160.5t106.5 241 t115 335.5q4 10 6 19.5t6 19.5q-35 -4 -70 -9t-69 -13q-10 2 -5 10t18 16.5t31.5 15.5t34.5 9t34 3t36 3q74 221 159 400.5t179 307.5t194.5 197.5t202.5 69.5q39 0 65.5 -16.5t40 -43t13.5 -58.5t-14 -62q-4 -6 -10.5 -4t-10.5 8q-4 41 -37.5 72.5t-105.5 31.5 q-78 0 -148.5 -41t-143.5 -143.5t-147.5 -276.5t-160.5 -440q47 2 99 2h108q10 -4 9 -11t-20 -11l-102 -4q-51 -2 -104 -7q-6 -23 -15 -41q-84 -268 -172 -449t-180 -291t-187.5 -156t-193.5 -46q-70 0 -99.5 31t-29.5 72zM-596 -395q0 18 8 39.5t21 38.5q6 6 11 2t5 -11 q-8 -16 -6 -37.5t17.5 -41t45 -33t76.5 -13.5q49 0 97.5 12.5t96.5 46.5t96 95t99.5 160.5t106.5 241t115 335.5q4 10 6 19.5t6 19.5q-35 -4 -70 -9t-69 -13q-10 2 -5 10t18 16.5t31.5 15.5t34.5 9t34 3t36 3q74 221 159 400.5t179 307.5t194.5 197.5t202.5 69.5 q39 0 65.5 -16.5t40 -43t13.5 -58.5t-14 -62q-4 -6 -10.5 -4t-10.5 8q-4 41 -37.5 72.5t-105.5 31.5q-78 0 -148.5 -41t-143.5 -143.5t-147.5 -276.5t-160.5 -440q47 2 99 2h108q10 -4 9 -11t-20 -11l-102 -4q-51 -2 -104 -7q-6 -23 -15 -41q-84 -268 -172 -449t-180 -291 t-187.5 -156t-193.5 -46q-70 0 -99.5 31t-29.5 72z" />
</font>
</defs>
</svg>
